img image001 image001 image001 image001 image001 image001 image001 image001 image001 image001 image001 image001 image001 image001 image001 image001

Planets Sun Sun Sun
Статистика раздачи
Автор: Nickolas3434 | Размер: 19.25 ГБ | Добавлен: 17 окт 2017
Раздают: 2    Качают: 0
Скачать торрент
Скачать торрент
Описание торрента

СообщениеДобавлено: 17 окт 2017 

Информация о фильме
Название: Печальная Белладонна
Оригинальное название: Kanashimi no Belladonna / Belladonna of Sadness
Год выхода: 1973
Жанр: аниме, фэнтези, драма, эротика
Режиссер: Эйити Ямамото
В ролях: Тацуя Накадай, Кацуюки Ито, Аико Нагаяма, Сигако Симэги, Масая Такахаси, Нацука Ясиро, Масакане Ёнекура и др.
Описание: В сельской глубинке средневековой Франции двое влюблённых крестьян, Жан и Жанна, направляются к местному барону за разрешением на брак. Однако налог на венчание резко возрос, жених заплатить не в состоянии, и потому первая брачная ночь с невестой достаётся господину и его свите. Почувствовав себя брошенной богом, девушка обращается к нечистой силе.

Страна: Япония
Продолжительность: 01:27:19
Перевод: Любительский (одноголосый закадровый)
Субтитры: русские, английские
Оригинальная аудиодорожка: японский
Файл
Качество: BDRemux 1080р
Видео: MPEG-4 AVC / 1920x1080 / 16:9 / 24.000 fps / 29700 kbps
Аудио 1: АС3 / 384 kbps / 2.0 / 48 kHz / русский
Аудио 2: DTS / 1536 kbps / 2.0 / 48 kHz / японский

General
Unique ID : 180277037474873184306260738933676009715 (0x87A0182F915EB9E0A8BDA0B0B26768F3)
Complete name : Belladonna of Sadness (1973).mkv
Format : Matroska
Format version : Version 4 / Version 2
File size : 19.2 GiB
Duration : 1h 30mn
Overall bit rate mode : Variable
Overall bit rate : 30.6 Mbps
Encoded date : UTC 2017-08-02 10:04:04
Writing application : mkvmerge v9.1.0 ('Little Earthquakes') 64bit
Writing library : libebml v1.3.3 + libmatroska v1.4.4
Video
ID : 1
Format : AVC
Format/Info : Advanced Video Codec
Format profile : High@L4.1
Format settings, CABAC : Yes
Format settings, ReFrames : 3 frames
Format settings, GOP : M=3, N=12
Codec ID : V_MPEG4/ISO/AVC
Duration : 1h 27mn
Bit rate mode : Variable
Bit rate : 29.7 Mbps
Maximum bit rate : 35.0 Mbps
Width : 1 920 pixels
Height : 1 080 pixels
Display aspect ratio : 16:9
Frame rate mode : Constant
Frame rate : 24.000 fps
Standard : NTSC
Color space : YUV
Chroma subsampling : 4:2:0
Bit depth : 8 bits
Scan type : Progressive
Bits/(Pixel*Frame) : 0.596
Stream size : 18.1 GiB (94%)
Default : Yes
Forced : No
Color range : Limited
Color primaries : BT.709
Transfer characteristics : BT.709
Matrix coefficients : BT.709
Audio #1
ID : 2
Format : AC-3
Format/Info : Audio Coding 3
Mode extension : CM (complete main)
Format settings, Endianness : Big
Codec ID : A_AC3
Duration : 1h 27mn
Bit rate mode : Constant
Bit rate : 384 Kbps
Channel(s) : 2 channels
Channel positions : Front: L R
Sampling rate : 48.0 KHz
Frame rate : 31.250 fps (1536 spf)
Compression mode : Lossy
Delay relative to video : -83ms
Stream size : 240 MiB (1%)
Title : VO
Language : Russian
Default : Yes
Forced : No
Audio #2
ID : 3
Format : DTS
Format/Info : Digital Theater Systems
Mode : 16
Format settings, Endianness : Big
Codec ID : A_DTS
Duration : 1h 27mn
Bit rate mode : Constant
Bit rate : 1 509 Kbps
Channel(s) : 2 channels
Channel positions : Front: L R
Sampling rate : 48.0 KHz
Frame rate : 93.750 fps (512 spf)
Bit depth : 24 bits
Compression mode : Lossy
Delay relative to video : -72ms
Stream size : 942 MiB (5%)
Language : Japanese
Default : No
Forced : No
Text #1
ID : 4
Format : UTF-8
Codec ID : S_TEXT/UTF8
Codec ID/Info : UTF-8 Plain Text
Duration : 1h 28mn
Bit rate : 41 bps
Count of elements : 494
Stream size : 27.3 KiB (0%)
Language : Russian
Default : No
Forced : No
Text #2
ID : 5
Format : UTF-8
Codec ID : S_TEXT/UTF8
Codec ID/Info : UTF-8 Plain Text
Duration : 1h 26mn
Bit rate : 22 bps
Count of elements : 494
Stream size : 14.3 KiB (0%)
Language : English
Default : No
Forced : No
Menu
00:00:00.000 : en:00:00:00.000
00:05:05.958 : en:00:05:05.958
00:09:12.833 : en:00:09:12.833
00:12:42.250 : en:00:12:42.250
00:19:41.208 : en:00:19:41.208
00:28:27.792 : en:00:28:27.792
00:36:11.167 : en:00:36:11.167
00:49:11.750 : en:00:49:11.750
00:53:29.250 : en:00:53:29.250
01:03:17.458 : en:01:03:17.458
01:13:03.625 : en:01:13:03.625
01:19:41.750 : en:01:19:41.750



   Похожие торренты   Торрент   Размер 
В этой теме нет новых непрочитанных сообщений. Belladonna (2015) PC | RePack от Let'sPlay

89 | 8

486.73 МБ

В этой теме нет новых непрочитанных сообщений. Мусаси Миямото / Miyamoto Musashi (1973) BDRemux 1080р | L1

1 | 0

40.49 ГБ

В этой теме нет новых непрочитанных сообщений. А теперь не смотри / Don't Look Now (1973) BDRemux 1080р | P, P2, A | Criterion Collection

0 | 0

19.66 ГБ

В этой теме нет новых непрочитанных сообщений. Туки-Буки / Touki bouki (1973) BDRemux 1080р | L1

3 | 0

22.58 ГБ

В этой теме нет новых непрочитанных сообщений. Ночной портье / Il portiere di notte (1973) BDRemux 1080р | P, P2, A

2 | 0

30.01 ГБ

В этой теме нет новых непрочитанных сообщений. Река Титаш / Titash Ekti Nadir Naam (1973) BDRemux 1080р | L1

2 | 1

23.46 ГБ

В этой теме нет новых непрочитанных сообщений. Скорпион: Песня ненависти №701 / Joshû sasori: 701-gô urami-bushi (1973) BDRemux 1080р | L1

3 | 4

22.61 ГБ




Вы не можете начинать темы
Вы не можете отвечать на сообщения
Вы не можете редактировать свои сообщения
Вы не можете удалять свои сообщения
Вы не можете добавлять вложения

Перейти:  
 Вход
ppkBB3cker v.2 © 2008-2014 @ PPK
[ Time : 0.042s | 18 Queries | GZIP : Off ]

cron