img image001 image001 image001 image001 image001 image001 image001 image001 image001 image001 image001 image001 image001 image001 image001 image001

Planets Sun Sun Sun
Статистика раздачи
Автор: Nickolas3434 | Размер: 6.16 ГБ | Добавлен: 05 ноя 2017
Раздают: 7    Качают: 1
Скачать торрент
Скачать торрент
Описание торрента

СообщениеДобавлено: 05 ноя 2017 

Информация о фильме
Название: Грязная Парочка OVA
Оригинальное название: Dirty Pair OVA
Год выхода: 1987-1988
Жанр: приключения, комедия, этти, фантастика
Режиссер: Ятабэ Кацуёси, Такидзава Тосифуми, Касима Норио
Художник: Накамура Мицуки, Миура Сатоси
В ролях: Тонгу Кёко, Симадзу Саэко, Макисима Наоки, Саваки Икуя, Кацуки Масако, Тацута Наоки, Тотани Кодзи, Такэмура Хироси
О фильме:
Агенты по борьбе с неприятностями Кей и Юри из ОООБ легко устраняют любые неприятности. А то что в процессе устранения за спиной остаются руины... Да - начальство переживает, но задание-то выполнено!

World Art | MAL
Страна: Япония
Студия: Sunrise
Продолжительность: 00:24:30
Язык: Русский, Японский
Перевод: Любительский (двухголосый, закадровый)
Файл
Качество: DVDRip-AVC
Формат: MKV
Видео кодек: H.264
Аудио кодек: AAC, AC3
Видео: 720x478, 23.976 fps, 3100 kbps
Аудио RUS: 48.0 kHz, AAC, 2 ch, 256 kbps
Аудио JAP: 48.0 kHz, AC3, 2 ch, 448 kbps
Субтитры: русские (встроенные полный перевод, ASS) - MisterX & Utena
Субтитры: английские (встроенные полный перевод, ASS)
Релиз от:
Озвучивание: Azazel, Oni
Перевод: MisterX, Utena
Тайминг и работа со звуком: Lukrass, Mr.Agres, Kyryer, Zlo, Reantaro

01. Prison Revolt! We Hate Stubborn People
02. Count Us Out! Ultimate Halloween Party
03. Challenge To The Gods! We're Not Afraid Of Your Divine Wrath
04. They're Only Kids? Wargamers Must Die
05. And Then No One Played
06. What? A Surprise Seaside Wedding Panic
07. Rigged Ring? Revenge Of The Muscle Lady
08. This Girl Is My Elder! Sleeping Beauty
09. Slaughter Squad! Red Eyed Hell Signal
10. Evil Speaks For Itself! Space Truckers
General
Format : Matroska
Format version : Version 4 / Version 2
File size : 667 MiB
Duration : 24 min
Overall bit rate : 3 814 kb/s
Encoded date : UTC 2017-10-30 07:26:27
Writing application : mkvmerge v8.3.0 ('Over the Horizon') 64bit
Writing library : libebml v1.3.1 + libmatroska v1.4.2
Video
ID : 1
Format : AVC
Format/Info : Advanced Video Codec
Format profile : High@L4
Format settings, CABAC : Yes
Format settings, ReFrames : 16 frames
Codec ID : V_MPEG4/ISO/AVC
Duration : 24 min
Bit rate : 3 107 kb/s
Width : 720 pixels
Height : 478 pixels
Display aspect ratio : 1.374
Frame rate mode : Constant
Frame rate : 23.976 (24000/1001) FPS
Color space : YUV
Chroma subsampling : 4:2:0
Bit depth : 8 bits
Scan type : Progressive
Bits/(Pixel*Frame) : 0.377
Stream size : 543 MiB (81%)
Writing library : x264 core 112 r1867 22bfd31
Encoding settings : cabac=1 / ref=16 / deblock=1:-1:-1 / analyse=0x3:0x133 / me=umh / subme=10 / psy=1 / psy_rd=1.00:0.00 / mixed_ref=1 / me_range=24 / chroma_me=1 / trellis=2 / 8x8dct=1 / cqm=0 / deadzone=21,11 / fast_pskip=0 / chroma_qp_offset=-2 / threads=1 / sliced_threads=0 / nr=0 / decimate=1 / interlaced=0 / constrained_intra=0 / bframes=8 / b_pyramid=2 / b_adapt=2 / b_bias=0 / direct=1 / weightb=1 / open_gop=0 / weightp=2 / keyint=400 / keyint_min=5 / scenecut=40 / intra_refresh=0 / rc=crf / mbtree=0 / crf=17.0 / qcomp=0.60 / qpmin=0 / qpmax=23 / qpstep=4 / ip_ratio=1.40 / pb_ratio=1.30 / aq=1:0.80
Language : English
Default : Yes
Forced : No
Color range : Limited
Matrix coefficients : BT.601
Audio #1
ID : 2
Format : AAC
Format/Info : Advanced Audio Codec
Format profile : LC
Codec ID : A_AAC
Duration : 24 min
Bit rate : 256 kb/s
Channel(s) : 2 channels
Channel positions : Front: L R
Sampling rate : 48.0 kHz
Frame rate : 46.875 FPS (1024 spf)
Compression mode : Lossy
Stream size : 44.7 MiB (7%)
Title : AniDub
Language : Russian
Default : Yes
Forced : No
Audio #2
ID : 3
Format : AC-3
Format/Info : Audio Coding 3
Mode extension : CM (complete main)
Format settings, Endianness : Big
Codec ID : A_AC3
Duration : 24 min
Bit rate mode : Constant
Bit rate : 448 kb/s
Channel(s) : 2 channels
Channel positions : Front: L R
Sampling rate : 48.0 kHz
Frame rate : 31.250 FPS (1536 spf)
Compression mode : Lossy
Stream size : 78.3 MiB (12%)
Title : Original
Language : Japanese
Default : No
Forced : No
Text #1
ID : 4
Format : ASS
Codec ID : S_TEXT/ASS
Codec ID/Info : Advanced Sub Station Alpha
Duration : 23 min
Bit rate : 122 b/s
Count of elements : 304
Compression mode : Lossless
Stream size : 21.2 KiB (0%)
Title : Полные субтитры
Language : Russian
Default : Yes
Forced : No
Text #2
ID : 5
Format : ASS
Codec ID : S_TEXT/ASS
Codec ID/Info : Advanced Sub Station Alpha
Duration : 24 min
Bit rate : 108 b/s
Count of elements : 299
Compression mode : Lossless
Stream size : 19.2 KiB (0%)
Title : English
Language : English
Default : No
Forced : No



   Похожие торренты   Торрент   Размер 
В этой теме нет новых непрочитанных сообщений. Грязная Парочка / Dirty Pair [01-26 из 26] (1985) DVDRip | L2

172 | 25

9.07 ГБ

В этой теме нет новых непрочитанных сообщений. Грязная Парочка: Проект Эдем / Dirty Pair Project Eden (1985) DVDRip-AVC | L2

19 | 2

2.51 ГБ

В этой теме нет новых непрочитанных сообщений. Грязная Парочка: Ноландское дело / Dirty Pair: Nolandia no Nazo OVA (1985) DVDRip | L2

69 | 3

1.52 ГБ

В этой теме нет новых непрочитанных сообщений. 11 дней 11 ночей 5: Грязная любовь / Dirty Love (1988) DVDRip | A

103 | 27

1022.27 МБ

В этой теме нет новых непрочитанных сообщений. Грязная дюжина: Смертельное задание / Dirty Dozen: The Deadly Mission (1987) BDRip-AVC от E76 | P2

13 | 5

3.22 ГБ

В этой теме нет новых непрочитанных сообщений. Грязная любовь / Dirty Love (2005) DVDRip-AVC | P

52 | 9

2.17 ГБ

В этой теме нет новых непрочитанных сообщений. Грязная любовь / Dirty Love (2005) DVDRip

75 | 14

1.46 ГБ




Вы не можете начинать темы
Вы не можете отвечать на сообщения
Вы не можете редактировать свои сообщения
Вы не можете удалять свои сообщения
Вы не можете добавлять вложения

Перейти:  
 Вход
ppkBB3cker v.2 © 2008-2014 @ PPK
[ Time : 0.022s | 17 Queries | GZIP : Off ]

cron