img image001 image001 image001 image001 image001 image001 image001 image001 image001 image001 image001 image001 image001 image001 image001 image001

Planets Sun Sun Sun
Статистика раздачи
Автор: PriZraK | Размер: 1.1 ГБ | Добавлен: 12 фев 2018
Раздают: 0    Качают: 0
Скачать торрент
Скачать торрент
Описание торрента

СообщениеДобавлено: 12 фев 2018 

Твоё имя / Kimi no Na wa



Жанр: аниме, мультфильм, фэнтези, драма, мелодрама
Продолжительность: 01:46:00
Рейтинг World-art: 9.2 из 10
Рейтинг IMDb: 8.5 из 10
Рейтинг КиноПоиск.RU: 8.3 из 10
Рейтинг рейтинг MPAA: PG

Перевод: Двухголосый, закадровый
Озвучивание: (муж./жен.) от Soer, MezIdA [DeadLine Studio]

Страна: Япония
Режиссер: Макото Синкай
Студия: CoMix Wave
Формат: HDRip, MKV, H.265, AC3
Год выпуска: 2016

В главных ролях: Миямидзу Мицуха, Ёцуха Миямидзу, Татибана Таки
Роли озвучивали: Монэ Камисираиси, Канон Тани, Рюноскэ Камики

Описание: Таки Татибана – старшеклассник из Токио, который устал от ритма мегаполиса и мечтает о спокойной провинции. Мицуха Миямизу, напротив, родилась и выросла в небольшом городке и больше не хочет здесь находиться, ведь где-то там шум улиц и постоянное движение – именно то, что нужно девочке.
Однажды Мицуха срывается и кричит на всю округу о ненависти к своему родному городу и своей жизни, и о том, что в следующий раз желает родиться красивым мальчиком из Токио. На следующее утро Мицуха каким-то образом оказывается перенесённой в тело старшеклассника Таки Татибаны, живущего в центре Токио, не зная, как и почему это произошло. Вскоре Таки и Мицуха понимают, что они оба транспортируются в тела друг друга во время сна и решают попытаться найти этому причину.
Так и начинается их история любви…


Хардсаб: отсутствует
Субтитры: отсутствуют
Видео: 1280x720 (16:9), 23.976 fps, HEVC (x265) Main@ L3.1@Main, ~ 1283 kbps avg, 0.058 bit/pixel, 8 bits
Аудио: AC-3, 44.1 KHz, 2 ch, (Front: L R), ~192 kbps avg

Общее
Уникальный идентификатор : 233546031813865801923346473307882476452 (0xAFB354611452672F9D54CE18E9A953A4)
Полное имя : F:\Торрент\Файлы\Tvoe_imya_2016\Kimi_no_Na_wa_[HDRip_1280x720_x265_AC-3].mkv
Формат : Matroska
Версия формата : Version 4 / Version 2
Размер файла : 1,10 Гбайт
Продолжительность : 1 ч. 46 м.
Общий поток : 1476 Кбит/сек
Дата кодирования : UTC 2017-10-30 09:46:19
Программа кодирования : mkvmerge v14.0.0 ('Flow') 64bit
Библиотека кодирования : libebml v1.3.4 + libmatroska v1.4.5 / Lavf57.41.100

Видео
Идентификатор : 1
Формат : HEVC
Формат/Информация : High Efficiency Video Coding
Профиль формата : @Main
Идентификатор кодека : V_MPEGH/ISO/HEVC
Продолжительность : 1 ч. 46 м.
Битрейт : 1283 Кбит/сек
Ширина : 1280 пикселей
Высота : 720 пикселей
Соотношение сторон : 16:9
Режим частоты кадров : Переменный
Частота кадров : 23,976 кадра/сек
Цветовое пространство : YUV
Субдискретизация насыщенности : 4:2:0
Битовая глубина : 8 бит
Бит/(Пиксели*Кадры) : 0.058
Размер потока : 978 Мбайт (87%)
Заголовок : HDrip Daylav
Библиотека кодирования : x265 1.9:[Windows][GCC 4.9.3][32 bit] 8bit
Настройки программы : wpp / ctu=64 / min-cu-size=8 / max-tu-size=32 / tu-intra-depth=1 / tu-inter-depth=1 / me=1 / subme=2 / merange=57 / no-rect / no-amp / max-merge=2 / temporal-mvp / no-early-skip / rdpenalty=0 / no-tskip / no-tskip-fast / strong-intra-smoothing / no-lossless / no-cu-lossless / no-constrained-intra / no-fast-intra / open-gop / no-temporal-layers / interlace=0 / keyint=250 / min-keyint=23 / scenecut=40 / rc-lookahead=20 / lookahead-slices=4 / bframes=4 / bframe-bias=0 / b-adapt=2 / ref=3 / limit-refs=3 / no-limit-modes / weightp / no-weightb / aq-mode=1 / qg-size=32 / aq-strength=1.00 / cbqpoffs=0 / crqpoffs=0 / rd=3 / psy-rd=2.00 / rdoq-level=0 / psy-rdoq=0.00 / signhide / deblock / sao / no-sao-non-deblock / b-pyramid / cutree / no-intra-refresh / rc=crf / crf=18.0 / qcomp=0.60 / qpmin=0 / qpmax=51 / qpstep=4 / ipratio=1.40 / pbratio=1.30
Язык : Japanese
Default : Да
Forced : Нет

Аудио
Идентификатор : 2
Формат : AC-3
Формат/Информация : Audio Coding 3
Расширение режима : CM (complete main)
Параметр Endianness формата : Big
Идентификатор кодека : A_AC3
Продолжительность : 1 ч. 46 м.
Вид битрейта : Постоянный
Битрейт : 192 Кбит/сек
Каналы : 2 канала
Расположение каналов : Front: L R
Частота : 44,1 КГц
Частота кадров : 28,711 кадров/сек (1536 spf)
Метод сжатия : С потерями
Размер потока : 146 Мбайт (13%)
Заголовок : DeadLine
Библиотека кодирования : Lavc57.48.101 ac3
Язык : Russian
Default : Да
Forced : Нет




   Похожие торренты   Торрент   Размер 
В этой теме нет новых непрочитанных сообщений. Твое имя / Kimi no na wa. (Макото Синкай) [Movie] [RUS(int)+JAP] [2016, аниме, мультфильм, фэнтези, драма, мелодрама, BDRip] [1080p]

44 | 4

8.39 ГБ

В этой теме нет новых непрочитанных сообщений. Ходячий замок / Howl's Moving Castle / Hauru no ugoku shiro (Хаяо Миядзаки) [Movie] [RUS(int)+JAP] [2004, аниме, мультфильм, фантастика, фэнтези, мелодрама, приключения, BDRip] [1080p]

8 | 2

10.88 ГБ

В этой теме нет новых непрочитанных сообщений. Кобаяши и её горничная-дракон / Kobayashi-san Chi no Maid Dragon (Такэмото Ясухиро) [TV] [1-13 из 13] [RAW] [RUS] [2017, аниме, мультфильм, комедия, фэнтези, HDRip] [720p]

6 | 0

1.83 ГБ

В этой теме нет новых непрочитанных сообщений. Спящая красавица / Sleeping Beauty (Клайд Джероними) [1959, мультфильм, мюзикл, фэнтези, мелодрама, семейный, HDRip-AVC] DUB(rus+ukr)+2xMVO(rus)+SUB(rus+eng)

4 | 2

2.55 ГБ

В этой теме нет новых непрочитанных сообщений. Привидение / Every Day (Майкл Сакси) [2018, Фэнтези, драма, мелодрама, HDRip-AVC] DUB

70 | 0

1.45 ГБ

В этой теме нет новых непрочитанных сообщений. Привидение / Every Day (Майкл Сакси) [2018, фэнтези, драма, мелодрама, HDRip] DUB

144 | 6

1.37 ГБ

В этой теме нет новых непрочитанных сообщений. Где-то во времени / Somewhere in Time (Жанно Шварц) [1980, драма, мелодрама, фэнтези, HDRip] MVO

3 | 0

1.45 ГБ




Вы не можете начинать темы
Вы не можете отвечать на сообщения
Вы не можете редактировать свои сообщения
Вы не можете удалять свои сообщения
Вы не можете добавлять вложения

Перейти:  
 Вход
ppkBB3cker v.2 © 2008-2014 @ PPK
[ Time : 0.038s | 16 Queries | GZIP : Off ]

cron