img image001 image001 image001 image001 image001 image001 image001 image001 image001 image001 image001 image001 image001 image001 image001 image001

Planets Sun Sun Sun
Статистика раздачи
Автор: PriZraK | Размер: 14.22 ГБ | Добавлен: 12 фев 2018
Раздают: 2    Качают: 0
Скачать торрент
Скачать торрент
Описание торрента

СообщениеДобавлено: 12 фев 2018 

Боруто / Боруто: Новое Поколение / Boruto: Naruto Next Generations / Boruto-ボルト- Naruto Next Generations [001-042 из ХХХ]


Перевод: Любительский (одноголосый) - [AniDub]
Субтитры: отсутствуют
Полухардсаб: логотип AniDub

Формат: WEBRip, MP4, H.264, AAC
Страна: Япония
Режиссер: Абэ Нориюки / Abe Noriyuki / 阿部記之
Жанр: приключения, фэнтези
Продолжительность: 42 эп. по ~25 мин.
Год выпуска: 2017
Озвучка: Ancord

Студия:

Описание: К этому времени Наруто добился практически всего, о чем мечтал в своей юности: прославился, завоевал любовь и уважение жителей Деревни Скрытого Листа, его вот-вот провозгласят Седьмым Хокагэ. Он женился на прекрасной девушке по имени Хината Хьюга, у них уютный дом, они вместе воспитывают двоих чудесных голубоглазых детей: сын Боруто - блондин и очень похож на отца, а очаровательная дочка Химавари - брюнетка, вся в маму. Наруто всегда занят, у него масса важных дел, он постоянно на работе, из-за чего не может уделять достаточного времени своей семье и детям. По этой причине в отношениях с сыном возникают сложности. К тому же юный Боруто Узумаки втайне мечтает превзойти своего отца, стать еще более знаменитым. Боруто талантлив, энергичен, обладает сильным характером, но упрям, непоседлив и невнимателен. С сестренкой они частенько конфликтуют, однако инцидент, случившийся в день церемонии провозглашения Седьмого Хокагэ, не на шутку перепугал Боруто.

В самый важный для отца и всей семьи день с утра во время завтрака выяснилось, что до сих пор не готов каори - одежда Наруто, предназначенная для церемонии посвящения. Хината объяснила, что портниха затянула сроки выполнения заказа, поэтому сразу после завтрака она заберет пошитый каори, но принести его домой, вероятно, не успеет. Хината принесет одежду прямо к церемонии, а Наруто должен собрать детей и вовремя выйти из дома, чтобы не опоздать. Семейство Узумаки в составе отца и двоих детей уже собиралось выходить из дома, когда в самый неподходящий момент дети поссорились из-за старой любимой игрушки Химавари. В пылу стычки игрушка порвалась, и девочка внезапно потеряла над собой контроль. Она ринулась в нападение на брата с совершенно белыми от ярости глазами, и тут на ее пути внезапно вырос отец со словами: "Нельзя сестре с братом ссориться". Удар страшной силы, предназначенный брату, пришелся в отца и лишил его сознания на длительное время. Каким образом Наруто Узумаки все-таки был объявлен Седьмым Хокагэ.
© Naruto-Base




Видео: 1280 x 720 (16:9) at 23.976 fps, AVC (x264), , ~1799 Kbps avg, 0.081 bit/pixel, 8 bit
Аудио: 48.0 kHz, AAC (LC), 2 ch (Front: L R), 192 kbps avg


Перевод: GoggerToy
Тайминг и работа со звуком: Sheeze


01. Боруто Узумаки
02. Сын Хокаге!
03. Дикий Метал Ли!
04. Ниндзюцу Бой Полов!
05. Таинственный переведённый.
06. Последний урок.
07. Любовь и картофельные чипсы
08. Ночное откровение
09. Доказательство
10. Призрачный Инцидент: Начало расследования!
11. Тень Руководителя
12. Боруто и Мицуки
13. Появление Демонического Зверя!
14. Путь, который видит лишь Боруто
15. Новый Путь.
16. Кризис: Угроза неудачи!
17. Беги, Сарада!
18. День из жизни семьи Узумаки
19. Учиха Сарада
20. Мальчик с шаринганом.
21. Саскэ и Сарада.
22. Связанные чувства.
23. Формы чувств
24. Боруто и Сарада
25. Ужасы школьной поездки!!
26. Преемник Мидзукагэ
27. Товарищеский поединок синоби
28. Объявление войны
29. Новая семёрка синоби-мечников!!
30. Сяринган против Молниеносных клинков Киба
31. Боруто и Кагура
32. Сувенирный квест
33. Кризис!! Тёдзюгига
34. Ночь падающих звёзд
35. Родительское собрание…!!
36. Выпускной экзамен начинается!!
37. Решимость синоби
38. Объединяемся в команды по трое…?
39. Путь, освещённый полной луной
40. Первая миссия седьмой команды!!
41. Сила сплочённости
42. Работа ниндзя

43.
Общее
Полное имя : [AniDub]_Boruto_-_Naruto_Next_Generations_[720p]_[Ancord] / [AniDub]_Boruto_-_Naruto_Next_Generations_[001]_[720p_x264_Aac]_[Ancord].mp4
Формат : MPEG-4
Профиль формата : Base Media
Идентификатор кодека : isom
Размер файла : 354 Мбайт
Продолжительность : 24 м.
Общий поток : 1995 Кбит/сек
Дата кодирования : UTC 2017-04-04 22:02:56
Дата пометки : UTC 2017-04-04 22:02:56
Программа кодирования : Yamb 2.1.0.0 [http://yamb.unite-video.com]

Видео
Идентификатор : 1
Формат : AVC
Формат/Информация : Advanced Video Codec
Профиль формата :
Параметр CABAC формата : Да
Параметр ReFrames формата : 3 кадры
Идентификатор кодека : avc1
Идентификатор кодека/Информация : Advanced Video Coding
Продолжительность : 24 м.
Вид битрейта : Переменный
Битрейт : 1799 Кбит/сек
Максимальный битрейт : 9271 Кбит/сек
Ширина : 1280 пикс.
Высота : 720 пикс.
Соотношение сторон : 16:9
Режим частоты кадров : Переменный
Частота кадров : 23,976 кадр/сек
Минимальная частота кадров : 23,976 кадр/сек
Максимальная частота кадров : 23,988 кадр/сек
Стандарт вещания : NTSC
Цветовое пространство : YUV
Подвыборка цветности : 4:2:0
Битовая глубина : 8 бит
Тип развёртки : Прогрессивная
Бит/(Пиксели*Кадры) : 0.081
Размер потока : 319 Мбайт (90%)
Язык : English
Дата кодирования : UTC 2017-04-05 19:45:03
Дата пометки : UTC 2017-04-04 22:04:08

Аудио
Идентификатор : 2
Формат : AAC
Формат/Информация : Advanced Audio Codec
Профиль формата : LC
Идентификатор кодека : 40
Продолжительность : 24 м.
Вид битрейта : Переменный
Битрейт : 192 Кбит/сек
Максимальный битрейт : 196 Кбит/сек
Канал(ы) : 2 канала(ов)
Расположение каналов : Front: L R
Частота : 48,0 КГц
Метод сжатия : С потерями
Размер потока : 34,1 Мбайт (10%)
Язык : English
Дата кодирования : UTC 2017-04-04 22:04:08
Дата пометки : UTC 2017-04-04 22:04:08








   Похожие торренты   Торрент   Размер 
В этой теме нет новых непрочитанных сообщений. Боруто / Боруто: Новое Поколение / Boruto: Naruto Next Generations (Абэ Нориюки) [TV] [001-020 из ХХХ] [Полухардсаб] [RUS(int)] [2017, приключения, фэнтези, WEBRip] [720р] / Наруто

4 | 0

6.68 ГБ

В этой теме нет новых непрочитанных сообщений. Боруто / Боруто: Новое Поколение / Boruto: Naruto Next Generations (Абэ Нориюки) [TV] [001-046 из ХХХ] [Полухардсаб] [RUS(int)] [2017, приключения, фэнтези, WEBRip] [720р] / Наруто

0 | 0

15.59 ГБ

В этой теме нет новых непрочитанных сообщений. Боруто / Боруто: Новое Поколение / Boruto: Naruto Next Generations (Абэ Нориюки) [TV] [001-017 из ХХХ] [Полухардсаб] [RUS(int)] [2017, приключения, фэнтези, WEBRip] [720р] / Наруто

8 | 0

5.62 ГБ

В этой теме нет новых непрочитанных сообщений. Боруто / Боруто: Новое Поколение / Boruto: Naruto Next Generations (Абэ Нориюки) [TV] [001-024 из ХХХ] [Полухардсаб] [RUS(int)] [2017, приключения, фэнтези, WEBRip] [720р] / Наруто

8 | 0

8.09 ГБ

В этой теме нет новых непрочитанных сообщений. Боруто / Боруто: Новое Поколение / Boruto: Naruto Next Generations (Абэ Нориюки) [TV] [001-009 из ХХХ] [Полухардсаб] [RUS(int)] [2017, приключения, фэнтези, WEBRip] [720р] / Наруто

0 | 0

2.93 ГБ

В этой теме нет новых непрочитанных сообщений. Боруто / Боруто: Новое Поколение / Boruto: Naruto Next Generations (Абэ Нориюки) [TV] [001-019 из ХХХ] [Полухардсаб] [RUS(int)] [2017, приключения, фэнтези, WEBRip] [720р] / Наруто

12 | 10

6.33 ГБ

В этой теме нет новых непрочитанных сообщений. Боруто / Боруто: Новое Поколение / Boruto: Naruto Next Generations (Абэ Нориюки) [TV] [001-044 из ХХХ] [Полухардсаб] [RUS(int)] [2017, приключения, фэнтези, WEBRip] [720р] / Наруто

0 | 4

14.91 ГБ




Вы не можете начинать темы
Вы не можете отвечать на сообщения
Вы не можете редактировать свои сообщения
Вы не можете удалять свои сообщения
Вы не можете добавлять вложения

Перейти:  
 Вход
ppkBB3cker v.2 © 2008-2014 @ PPK
[ Time : 0.034s | 18 Queries | GZIP : Off ]

cron