img image001 image001 image001 image001 image001 image001 image001 image001 image001 image001 image001 image001 image001 image001 image001 image001

Planets Sun Sun Sun
Статистика раздачи
Автор: Снежана | Размер: 1.75 ГБ | Добавлен: 25 июн 2018
Раздают: 5    Качают: 3
Скачать торрент
Скачать торрент
Описание торрента

СообщениеДобавлено: 25 июн 2018 



Информация о фильме

Название : Нет игры — нет жизни: Начало
Оригинальное название : No Game No Life: Zero / ノーゲーム・ノーライフ ゼロ
Год выхода : 2017
Жанр : Приключения, фэнтези, драма
Режиссер : Исидзука Ацуко
| MyAnimeList | Офиц. Сайт
Описание : Эта история происходит за шесть тысяч лет до того, как Сора и Широ появились в истории Дисборда.
Война уничтожила землю, разрывая небеса, разрушая звёзды и даже угрожая уничтожить всё человечество. Среди хаоса и разрушения молодой человек по имени Рику ведёт человечество к завтрашнему дню по велению своего сердца. В один прекрасный день, в руинах города эльфов, он встречает Шуви, девушку-изгнанницу Экс-Машин, которая просит научить её, что значит иметь человеческое сердце.
Страна : Япония
Производство : Madhouse
Продолжительность : 01:46:28
Перевод : Любительский (одноголосый, закадровый)

Субтитры: AniLibria
Перевод: Flerion
Редактура: Vurdalak121
Оформление: Keitaro и Horodep, редактура: Pomidorchik

Озвучка: Get Smart Group
- одноголосая (жен.): Persona99
По переводу: Nika_Elrik [YakuSub Studio]
Тех. работы: Дмитрий Леманн
Автор рипа и релиза : Страник 2.0
Файл
Формат видео : AVI
Качество : BDRip (исходник: BDRemux, спасибо antiBILLotic)
Тип релиза: Полухардсаб (Надписи)

Видео: XviD, 720x400 (16:9), 1767 Кбит/с, 23.976 fps, 8 bit
Аудио 1: Русский, AC3, 192 Кбит/с, 48.0 Hz, 2 ch (в составе контейнера)
Аудио 2: Японский, AC3, 384 Кбит/с, 48.0 Hz, 6 ch (в составе контейнера)
Субтитры (srt): Русские (внешним файлом)







General
Complete name : E:/Torrent_2/No Game No Life Zero (2017, XviD BDRip, RUS JAP+SUB) [Stranik 2.0] [Persona99.GSG]/No Game No Life Zero (2017, XviD BDRip, RUS JAP+SUB) [Stranik 2.0] [Persona99.GSG].avi
Format : AVI
Format/Info : Audio Video Interleave
File size : 1.75 GiB
Duration : 1h 46mn
Overall bit rate : 2 357 Kbps
Writing application : VirtualDubMod 1.5.10.3 (build 2550/release)
Writing library : VirtualDubMod build 2550/release

Video #0
ID : 0
Format : MPEG-4 Visual
Format profile : Advanced Simple@L5
Format settings, BVOP : 2
Format settings, QPel : No
Format settings, GMC : No warppoints
Format settings, Matrix : Custom
Codec ID : XVID
Codec ID/Hint : XviD
Duration : 1h 46mn
Bit rate : 1 767 Kbps
Width : 720 pixels
Height : 400 pixels
Display aspect ratio : 16:9
Frame rate : 23.976 fps
Color space : YUV
Chroma subsampling : 4:2:0
Bit depth : 8 bits
Scan type : Progressive
Compression mode : Lossy
Bits/(Pixel*Frame) : 0.256
Stream size : 1.31 GiB (75%)
Writing library : XviD 67

Audio #1
ID : 1
Format : AC-3
Format/Info : Audio Coding 3
Mode extension : CM (complete main)
Format settings, Endianness : Big
Codec ID : 2000
Duration : 1h 46mn
Bit rate mode : Constant
Bit rate : 192 Kbps
Channel(s) : 2 channels
Channel positions : Front: L R
Sampling rate : 48.0 KHz
Bit depth : 16 bits
Compression mode : Lossy
Stream size : 146 MiB (8%)
Alignment : Split accross interleaves
Interleave, duration : 42 ms (1.00 video frame)
Interleave, preload duration : 500 ms

Audio #2
ID : 2
Format : AC-3
Format/Info : Audio Coding 3
Mode extension : CM (complete main)
Format settings, Endianness : Big
Codec ID : 2000
Duration : 1h 46mn
Bit rate mode : Constant
Bit rate : 384 Kbps
Channel(s) : 6 channels
Channel positions : Front: L C R, Side: L R, LFE
Sampling rate : 48.0 KHz
Bit depth : 16 bits
Compression mode : Lossy
Stream size : 292 MiB (16%)
Alignment : Split accross interleaves
Interleave, duration : 42 ms (1.00 video frame)
Interleave, preload duration : 500 ms



Моя максимальная скорость отдачи 100КБ/c
Раздаю с 7:00 до 00:00 по Москве






   Похожие торренты   Торрент   Размер 
В этой теме нет новых непрочитанных сообщений. Игра на выживание / Нет игры - нет жизни / No Game No Life [01-12 из 12] (2014) WebRip 720p | LE-Production

245 | 48

4.06 ГБ

В этой теме нет новых непрочитанных сообщений. Игра на выживание / No Game No Life [01-12 из 12 + Special] (2014) BDRip от Stranik 2.0 | L2

67 | 12

4.32 ГБ

В этой теме нет новых непрочитанных сообщений. АКБ0048 / AKB0048 [s01] (2012) BDRip от Stranik 2.0 | Persona99

0 | 0

4.79 ГБ

В этой теме нет новых непрочитанных сообщений. Повелитель Тьмы на подработке! / Hataraku Maou-sama [01-13 из 13] (2013) BDRip от Stranik 2.0 | Persona99

5 | 0

4.94 ГБ

В этой теме нет новых непрочитанных сообщений. Любовь всей моей жизни / Love of My life (2017) BDRip 720p | L2

7 | 4

3.07 ГБ

В этой теме нет новых непрочитанных сообщений. Жизнь: Вода – основа жизни / Life 3D - Water, the Element of Life (2012) BDRip 1080p | 3D-Video | halfOU

73 | 10

8.25 ГБ

В этой теме нет новых непрочитанных сообщений. Сказка о Хвосте Феи Начало / Fairy Tail Zero [01-07] (2016) HDTVRip 720p | Persona99

15 | 19

2.64 ГБ




Вы не можете начинать темы
Вы не можете отвечать на сообщения
Вы не можете редактировать свои сообщения
Вы не можете удалять свои сообщения
Вы не можете добавлять вложения

Перейти:  
 Вход
ppkBB3cker v.2 © 2008-2014 @ PPK
[ Time : 0.035s | 18 Queries | GZIP : Off ]

cron