img image001 image001 image001 image001 image001 image001 image001 image001 image001 image001 image001 image001 image001 image001 image001 image001

Planets Sun Sun Sun
Статистика раздачи
Автор: Снежана | Размер: 8.78 ГБ | Добавлен: 25 июн 2018
Раздают: 38    Качают: 6
Скачать торрент
Скачать торрент
Описание торрента

СообщениеДобавлено: 25 июн 2018 

Информация о фильме
[b]Название: [/b]Этот замечательный мир!
[b]Оригинальное название: [/b]Kono Subarashii Sekai ni Shukufuku o!
[b]Страна: [/b]Япония [img]http://img12.lostpic.net/2018/05/08/2b4dc5941298e52367fc6240fa2f3c3c.gif[/img]
[b]Год выхода: [/b]2016-2017
[b]Жанр: [/b] Приключения, комедия, фэнтези
[b]Режиссер: [/b]Такаоми Канасаки
[b]Автор оригинала:[/b] Нацумэ Акацуки / Natsume Akatsuki / 暁なつめ
[b]О фильме:[/b] Пропадать – так с музыкой, выбирать – так богиню! Когда игроман-затворник Кадзума Сато окончил (преждевременно) свои дни на грешной земле, то очнулся в межреальности, где ехидная богиня Аква сделала ему предложение, от которого трудно отказаться. Да, вместо перерождения в жука или муху Кадзума получил шанс отправиться в игровой мир и «поработать по специальности», победив местного Князя Тьмы. Юному герою разрешили взять с собой что-то одно: и парень выбрал Акву – а нечего было выпендриваться! Начальство выбор утвердило – за слова надо отвечать, и парочка попаданцев отправилась на подвиги. На месте выяснилось, что попали ребята в тихие края, где о Темном Властелине только слышали. Ну и отлично – квест не терпит суеты, сначала надо осмотреться, потом спокойно обретать знания, копить навыки и качать опыт. Биться все равно придется – а значит, пора собирать группу, благо теория хорошо известна. Сам Кадзума, конечно, не мрачный воин, а скорее веселый вор, Аква как водная богиня потянет на целительницу, а главной огневой силой стала малышка Мэгумин, она же «Искусство – это взрыв!» Последней к компании прибилась Даркнес – уникальный рыцарь-мазохист. Да, с такими кадрами на Сатану идти не страшно – хуже уже не будет! © Hollow, World Art

[b]Студия:[/b][img]http://img12.lostpic.net/2018/05/28/3416fa7a8152d3dfbf275e23b362ce72.jpg[/img]

[url=http://www.imdb.com/title/tt5370118/][img]http://s.rutor.info/imdb/pic/5370118.gif[/img][/url]

[b]Продолжительность: [/b]~ 00:25:00, 1 х ~ 00:28:00
[b]Перевод: [/b]Любительский (двухголосый), любительский (многоголосый)
[b]Озвучка1:[/b] Ancord, Trina_D 1-2 сезон + 01-02 OVA (AniDub)
[b]Озвучка2:[/b] Mikrobelka & Kari (Anilibria) 1 сезон
[b]Озвучка3:[/b] Dancel & Lianna (SHIZA) 1 Сезон + 01 OVA
[b]Озвучка4:[/b] Kari & Lali (Anilibria) OVA 01
[b]Озвучка5:[/b] Kari & Lali & Sharon & Cleo-chan 2 сезон (Anilibria)
[b]Озвучка6:[/b] Dancel & RJ Pandora & Lianna [1-6] / Dancel & RJ Pandora & Лизавета [7-10]2 сезон (SHIZA)
[b]Озвучка7:[/b] OVA 02 Sakura & Ban (SovetRomantica)
[b]Озвучка8:[/b] OVA 02 Dancel & Лизавета & Pandora (SHIZA)
[b]Озвучка9:[/b] OVA 02 Sharon & Kari & Cleo-chan & Itashi (Anilibria))
Файл
[b]Формат:[/b] mkv
[b]Качество: [/b]BDRip 720p
[b]Видео: [/b]H.264; 1280x720; ~ 1800 Kbps, 23.976fps; (8 bit)
[b]Аудио 1[/b]: AC3 48000 Hz, 2.0, 192 kbps Язык Русский
[b]Аудио 2[/b]: AAC 48000 Hz, 2.0, ~ 177 kbps Язык Японский
[b]Субтитры: [/b]ASS встроенные в составе контейнера Язык субтитров русский ; Перевод: AOS Team - Jenia aka Zub - OVA AleX_MytH, batyrmastyr, Nachtwandler, Seiya Loveless, Атом, Матадор - OVA 2 Nesushiy & Ristretto

[spoiler="Инфо-файл"]
Общее
Уникальный идентификатор : 192661135891200084142656868367915009823 (0x90F12F60F5ECFDB481CF47DBCBBBC71F)
Полное имя : H:АнимеKono_ Subarashii_Sekai_ni_Shukufuku_o!_ +OVA [BDRip 720p]Kono Subarashii Sekai ni Shukufuku o! 1 [BDRip] [720p]Kono Subarashii Sekai ni Shukufuku o! - 01 (BDRip 720p).mkv
Формат : Matroska
Версия формата : Version 2
Размер файла : 445 Мбайт
Продолжительность : 25 м.
Общий поток : 2465 Кбит/сек
Дата кодирования : UTC 2018-05-27 23:29:20
Программа кодирования : mkvmerge v5.7.0 ('The Whirlwind') built on Jul 29 2012 15:12:35
Библиотека кодирования : libebml v1.2.3 + libmatroska v1.3.0

Видео
Идентификатор : 1
Формат : AVC
Формат/Информация : Advanced Video Codec
Профиль формата : High@L4
Параметр CABAC формата : Да
Параметр ReFrames формата : 6 кадров
Идентификатор кодека : V_MPEG4/ISO/AVC
Продолжительность : 25 м.
Ширина : 1280 пикселей
Высота : 720 пикселей
Соотношение сторон : 16:9
Режим частоты кадров : Постоянный
Частота кадров : 23,976 кадра/сек
Цветовое пространство : YUV
Субдискретизация насыщенности : 4:2:0
Битовая глубина : 8 бит
Тип развёртки : Прогрессивная
Default : Да
Forced : Нет

Аудио #1
Идентификатор : 2
Формат : AC-3
Формат/Информация : Audio Coding 3
Расширение режима : CM (complete main)
Параметр Endianness формата : Big
Идентификатор кодека : A_AC3
Продолжительность : 25 м.
Вид битрейта : Постоянный
Битрейт : 192 Кбит/сек
Каналы : 2 канала
Расположение каналов : Front: L R
Частота : 48,0 КГц
Метод сжатия : С потерями
Размер потока : 34,6 Мбайт (8%)
Заголовок : Ancord, Trina_D
Язык : Russian
Default : Нет
Forced : Да

Аудио #2
Идентификатор : 3
Формат : AC-3
Формат/Информация : Audio Coding 3
Расширение режима : CM (complete main)
Параметр Endianness формата : Big
Идентификатор кодека : A_AC3
Продолжительность : 25 м.
Вид битрейта : Постоянный
Битрейт : 192 Кбит/сек
Каналы : 2 канала
Расположение каналов : Front: L R
Частота : 48,0 КГц
Метод сжатия : С потерями
Размер потока : 34,6 Мбайт (8%)
Заголовок : Mikrobelka & Kari
Язык : Russian
Default : Нет
Forced : Нет

Аудио #3
Идентификатор : 4
Формат : AC-3
Формат/Информация : Audio Coding 3
Расширение режима : CM (complete main)
Параметр Endianness формата : Big
Идентификатор кодека : A_AC3
Продолжительность : 25 м.
Вид битрейта : Постоянный
Битрейт : 192 Кбит/сек
Каналы : 2 канала
Расположение каналов : Front: L R
Частота : 48,0 КГц
Метод сжатия : С потерями
Размер потока : 34,6 Мбайт (8%)
Заголовок : Dancel & Lianna
Язык : Russian
Default : Нет
Forced : Нет

Аудио #4
Идентификатор : 5
Формат : AAC
Формат/Информация : Advanced Audio Codec
Профиль формата : LC
Идентификатор кодека : A_AAC
Продолжительность : 25 м.
Каналы : 2 канала
Расположение каналов : Front: L R
Частота : 48,0 КГц
Метод сжатия : С потерями
Язык : Japanese
Default : Нет
Forced : Нет

Текст #1
Идентификатор : 6
Формат : ASS
Идентификатор кодека : S_TEXT/ASS
Идентификатор кодека/Информация : Advanced Sub Station Alpha
Метод сжатия : Без потерь
Заголовок : AOS Team
Язык : Russian
Default : Да
Forced : Нет

Текст #2
Идентификатор : 7
Формат : ASS
Идентификатор кодека : S_TEXT/ASS
Идентификатор кодека/Информация : Advanced Sub Station Alpha
Метод сжатия : Без потерь
Заголовок : Jenia aka Zub
Язык : Russian
Default : Нет
Forced : Нет

Общее
Уникальный идентификатор : 197704459657639794975411563989093277284 (0x94BC7E703027D56EA3EFF078855B5E64)
Полное имя : H:АнимеKono_ Subarashii_Sekai_ni_Shukufuku_o!_ +OVA [BDRip 720p]Kono Subarashii Sekai ni Shukufuku o! 1 [BDRip] [720p]Kono Subarashii Sekai ni Shukufuku o! - 02 (BDRip 720p).mkv
Формат : Matroska
Версия формата : Version 2
Размер файла : 396 Мбайт
Продолжительность : 23 м.
Общий поток : 2336 Кбит/сек
Дата кодирования : UTC 2018-05-27 23:38:37
Программа кодирования : mkvmerge v5.7.0 ('The Whirlwind') built on Jul 29 2012 15:12:35
Библиотека кодирования : libebml v1.2.3 + libmatroska v1.3.0

Видео
Идентификатор : 1
Формат : AVC
Формат/Информация : Advanced Video Codec
Профиль формата : High@L4
Параметр CABAC формата : Да
Параметр ReFrames формата : 6 кадров
Идентификатор кодека : V_MPEG4/ISO/AVC
Продолжительность : 23 м.
Ширина : 1280 пикселей
Высота : 720 пикселей
Соотношение сторон : 16:9
Режим частоты кадров : Постоянный
Частота кадров : 23,976 кадра/сек
Цветовое пространство : YUV
Субдискретизация насыщенности : 4:2:0
Битовая глубина : 8 бит
Тип развёртки : Прогрессивная
Default : Да
Forced : Нет

Аудио #1
Идентификатор : 2
Формат : AC-3
Формат/Информация : Audio Coding 3
Расширение режима : CM (complete main)
Параметр Endianness формата : Big
Идентификатор кодека : A_AC3
Продолжительность : 23 м.
Вид битрейта : Постоянный
Битрейт : 192 Кбит/сек
Каналы : 2 канала
Расположение каналов : Front: L R
Частота : 48,0 КГц
Метод сжатия : С потерями
Размер потока : 32,5 Мбайт (8%)
Заголовок : Ancord, Trina_D
Язык : Russian
Default : Нет
Forced : Да

Аудио #2
Идентификатор : 3
Формат : AC-3
Формат/Информация : Audio Coding 3
Расширение режима : CM (complete main)
Параметр Endianness формата : Big
Идентификатор кодека : A_AC3
Продолжительность : 23 м.
Вид битрейта : Постоянный
Битрейт : 192 Кбит/сек
Каналы : 2 канала
Расположение каналов : Front: L R
Частота : 48,0 КГц
Метод сжатия : С потерями
Размер потока : 32,5 Мбайт (8%)
Заголовок : Mikrobelka & Kari
Язык : Russian
Default : Нет
Forced : Нет

Аудио #3
Идентификатор : 4
Формат : AC-3
Формат/Информация : Audio Coding 3
Расширение режима : CM (complete main)
Параметр Endianness формата : Big
Идентификатор кодека : A_AC3
Продолжительность : 23 м.
Вид битрейта : Постоянный
Битрейт : 192 Кбит/сек
Каналы : 2 канала
Расположение каналов : Front: L R
Частота : 48,0 КГц
Метод сжатия : С потерями
Размер потока : 32,5 Мбайт (8%)
Заголовок : Dancel & Lianna
Язык : Russian
Default : Нет
Forced : Нет

Аудио #4
Идентификатор : 5
Формат : AAC
Формат/Информация : Advanced Audio Codec
Профиль формата : LC
Идентификатор кодека : A_AAC
Продолжительность : 23 м.
Каналы : 2 канала
Расположение каналов : Front: L R
Частота : 48,0 КГц
Метод сжатия : С потерями
Язык : Japanese
Default : Нет
Forced : Нет

Текст #1
Идентификатор : 6
Формат : ASS
Идентификатор кодека : S_TEXT/ASS
Идентификатор кодека/Информация : Advanced Sub Station Alpha
Метод сжатия : Без потерь
Заголовок : AOS Team
Язык : Russian
Default : Да
Forced : Нет

Текст #2
Идентификатор : 7
Формат : ASS
Идентификатор кодека : S_TEXT/ASS
Идентификатор кодека/Информация : Advanced Sub Station Alpha
Метод сжатия : Без потерь
Заголовок : Jenia aka Zub
Язык : Russian
Default : Нет
Forced : Нет

Общее
Уникальный идентификатор : 243951833274202353760611415709641873162 (0xB7876A006EA4C82CAE957CCBBCCC170A)
Полное имя : H:АнимеKono_ Subarashii_Sekai_ni_Shukufuku_o!_ +OVA [BDRip 720p]Kono Subarashii Sekai ni Shukufuku o! 1 [BDRip] [720p]Kono Subarashii Sekai ni Shukufuku o! - 03 (BDRip 720p).mkv
Формат : Matroska
Версия формата : Version 2
Размер файла : 391 Мбайт
Продолжительность : 23 м.
Общий поток : 2304 Кбит/сек
Дата кодирования : UTC 2018-05-27 23:41:13
Программа кодирования : mkvmerge v5.7.0 ('The Whirlwind') built on Jul 29 2012 15:12:35
Библиотека кодирования : libebml v1.2.3 + libmatroska v1.3.0

Видео
Идентификатор : 1
Формат : AVC
Формат/Информация : Advanced Video Codec
Профиль формата : High@L4
Параметр CABAC формата : Да
Параметр ReFrames формата : 6 кадров
Идентификатор кодека : V_MPEG4/ISO/AVC
Продолжительность : 23 м.
Ширина : 1280 пикселей
Высота : 720 пикселей
Соотношение сторон : 16:9
Режим частоты кадров : Постоянный
Частота кадров : 23,976 кадра/сек
Цветовое пространство : YUV
Субдискретизация насыщенности : 4:2:0
Битовая глубина : 8 бит
Тип развёртки : Прогрессивная
Default : Да
Forced : Нет

Аудио #1
Идентификатор : 2
Формат : AC-3
Формат/Информация : Audio Coding 3
Расширение режима : CM (complete main)
Параметр Endianness формата : Big
Идентификатор кодека : A_AC3
Продолжительность : 23 м.
Вид битрейта : Постоянный
Битрейт : 192 Кбит/сек
Каналы : 2 канала
Расположение каналов : Front: L R
Частота : 48,0 КГц
Метод сжатия : С потерями
Размер потока : 32,6 Мбайт (8%)
Заголовок : Ancord, Trina_D
Язык : Russian
Default : Нет
Forced : Да

Аудио #2
Идентификатор : 3
Формат : AC-3
Формат/Информация : Audio Coding 3
Расширение режима : CM (complete main)
Параметр Endianness формата : Big
Идентификатор кодека : A_AC3
Продолжительность : 23 м.
Вид битрейта : Постоянный
Битрейт : 192 Кбит/сек
Каналы : 2 канала
Расположение каналов : Front: L R
Частота : 48,0 КГц
Метод сжатия : С потерями
Размер потока : 32,6 Мбайт (8%)
Заголовок : Mikrobelka & Kari
Язык : Russian
Default : Нет
Forced : Нет

Аудио #3
Идентификатор : 4
Формат : AC-3
Формат/Информация : Audio Coding 3
Расширение режима : CM (complete main)
Параметр Endianness формата : Big
Идентификатор кодека : A_AC3
Продолжительность : 23 м.
Вид битрейта : Постоянный
Битрейт : 192 Кбит/сек
Каналы : 2 канала
Расположение каналов : Front: L R
Частота : 48,0 КГц
Метод сжатия : С потерями
Размер потока : 32,6 Мбайт (8%)
Заголовок : Dancel & Lianna
Язык : Russian
Default : Нет
Forced : Нет

Аудио #4
Идентификатор : 5
Формат : AAC
Формат/Информация : Advanced Audio Codec
Профиль формата : LC
Идентификатор кодека : A_AAC
Продолжительность : 23 м.
Каналы : 2 канала
Расположение каналов : Front: L R
Частота : 48,0 КГц
Метод сжатия : С потерями
Язык : Japanese
Default : Нет
Forced : Нет

Текст #1
Идентификатор : 6
Формат : ASS
Идентификатор кодека : S_TEXT/ASS
Идентификатор кодека/Информация : Advanced Sub Station Alpha
Метод сжатия : Без потерь
Заголовок : AOS Team
Язык : Russian
Default : Да
Forced : Нет

Текст #2
Идентификатор : 7
Формат : ASS
Идентификатор кодека : S_TEXT/ASS
Идентификатор кодека/Информация : Advanced Sub Station Alpha
Метод сжатия : Без потерь
Заголовок : Jenia aka Zub
Язык : Russian
Default : Нет
Forced : Нет

Общее
Уникальный идентификатор : 223515587325711833029636765389058246625 (0xA8278948C7C0101CA98E936E300887E1)
Полное имя : H:АнимеKono_ Subarashii_Sekai_ni_Shukufuku_o!_ +OVA [BDRip 720p]Kono Subarashii Sekai ni Shukufuku o! 1 [BDRip] [720p]Kono Subarashii Sekai ni Shukufuku o! - 04 (BDRip 720p).mkv
Формат : Matroska
Версия формата : Version 2
Размер файла : 386 Мбайт
Продолжительность : 23 м.
Общий поток : 2280 Кбит/сек
Дата кодирования : UTC 2018-05-27 23:43:02
Программа кодирования : mkvmerge v5.7.0 ('The Whirlwind') built on Jul 29 2012 15:12:35
Библиотека кодирования : libebml v1.2.3 + libmatroska v1.3.0

Видео
Идентификатор : 1
Формат : AVC
Формат/Информация : Advanced Video Codec
Профиль формата : High@L4
Параметр CABAC формата : Да
Параметр ReFrames формата : 6 кадров
Идентификатор кодека : V_MPEG4/ISO/AVC
Продолжительность : 23 м.
Ширина : 1280 пикселей
Высота : 720 пикселей
Соотношение сторон : 16:9
Режим частоты кадров : Постоянный
Частота кадров : 23,976 кадра/сек
Цветовое пространство : YUV
Субдискретизация насыщенности : 4:2:0
Битовая глубина : 8 бит
Тип развёртки : Прогрессивная
Default : Да
Forced : Нет

Аудио #1
Идентификатор : 2
Формат : AC-3
Формат/Информация : Audio Coding 3
Расширение режима : CM (complete main)
Параметр Endianness формата : Big
Идентификатор кодека : A_AC3
Продолжительность : 23 м.
Вид битрейта : Постоянный
Битрейт : 192 Кбит/сек
Каналы : 2 канала
Расположение каналов : Front: L R
Частота : 48,0 КГц
Метод сжатия : С потерями
Размер потока : 32,5 Мбайт (8%)
Заголовок : Ancord, Trina_D
Язык : Russian
Default : Нет
Forced : Да

Аудио #2
Идентификатор : 3
Формат : AC-3
Формат/Информация : Audio Coding 3
Расширение режима : CM (complete main)
Параметр Endianness формата : Big
Идентификатор кодека : A_AC3
Продолжительность : 23 м.
Вид битрейта : Постоянный
Битрейт : 192 Кбит/сек
Каналы : 2 канала
Расположение каналов : Front: L R
Частота : 48,0 КГц
Метод сжатия : С потерями
Размер потока : 32,5 Мбайт (8%)
Заголовок : Mikrobelka & Kari
Язык : Russian
Default : Нет
Forced : Нет

Аудио #3
Идентификатор : 4
Формат : AC-3
Формат/Информация : Audio Coding 3
Расширение режима : CM (complete main)
Параметр Endianness формата : Big
Идентификатор кодека : A_AC3
Продолжительность : 23 м.
Вид битрейта : Постоянный
Битрейт : 192 Кбит/сек
Каналы : 2 канала
Расположение каналов : Front: L R
Частота : 48,0 КГц
Метод сжатия : С потерями
Размер потока : 32,5 Мбайт (8%)
Заголовок : Dancel & Lianna
Язык : Russian
Default : Нет
Forced : Нет

Аудио #4
Идентификатор : 5
Формат : AAC
Формат/Информация : Advanced Audio Codec
Профиль формата : LC
Идентификатор кодека : A_AAC
Продолжительность : 23 м.
Каналы : 2 канала
Расположение каналов : Front: L R
Частота : 48,0 КГц
Метод сжатия : С потерями
Язык : Japanese
Default : Нет
Forced : Нет

Текст #1
Идентификатор : 6
Формат : ASS
Идентификатор кодека : S_TEXT/ASS
Идентификатор кодека/Информация : Advanced Sub Station Alpha
Метод сжатия : Без потерь
Заголовок : AOS Team
Язык : Russian
Default : Да
Forced : Нет

Текст #2
Идентификатор : 7
Формат : ASS
Идентификатор кодека : S_TEXT/ASS
Идентификатор кодека/Информация : Advanced Sub Station Alpha
Метод сжатия : Без потерь
Заголовок : Jenia aka Zub
Язык : Russian
Default : Нет
Forced : Нет

Общее
Уникальный идентификатор : 181187453247884659626545220703095479662 (0x884F6F26241C4BE38C1F7077B099DD6E)
Полное имя : H:АнимеKono_ Subarashii_Sekai_ni_Shukufuku_o!_ +OVA [BDRip 720p]Kono Subarashii Sekai ni Shukufuku o! 1 [BDRip] [720p]Kono Subarashii Sekai ni Shukufuku o! - 05 (BDRip 720p).mkv
Формат : Matroska
Версия формата : Version 2
Размер файла : 384 Мбайт
Продолжительность : 23 м.
Общий поток : 2261 Кбит/сек
Дата кодирования : UTC 2018-05-27 23:45:04
Программа кодирования : mkvmerge v5.7.0 ('The Whirlwind') built on Jul 29 2012 15:12:35
Библиотека кодирования : libebml v1.2.3 + libmatroska v1.3.0

Видео
Идентификатор : 1
Формат : AVC
Формат/Информация : Advanced Video Codec
Профиль формата : High@L4
Параметр CABAC формата : Да
Параметр ReFrames формата : 6 кадров
Идентификатор кодека : V_MPEG4/ISO/AVC
Продолжительность : 23 м.
Ширина : 1280 пикселей
Высота : 720 пикселей
Соотношение сторон : 16:9
Режим частоты кадров : Постоянный
Частота кадров : 23,976 кадра/сек
Цветовое пространство : YUV
Субдискретизация насыщенности : 4:2:0
Битовая глубина : 8 бит
Тип развёртки : Прогрессивная
Default : Да
Forced : Нет

Аудио #1
Идентификатор : 2
Формат : AC-3
Формат/Информация : Audio Coding 3
Расширение режима : CM (complete main)
Параметр Endianness формата : Big
Идентификатор кодека : A_AC3
Продолжительность : 23 м.
Вид битрейта : Постоянный
Битрейт : 192 Кбит/сек
Каналы : 2 канала
Расположение каналов : Front: L R
Частота : 48,0 КГц
Метод сжатия : С потерями
Размер потока : 32,6 Мбайт (8%)
Заголовок : Ancord, Trina_D
Язык : Russian
Default : Нет
Forced : Да

Аудио #2
Идентификатор : 3
Формат : AC-3
Формат/Информация : Audio Coding 3
Расширение режима : CM (complete main)
Параметр Endianness формата : Big
Идентификатор кодека : A_AC3
Продолжительность : 23 м.
Вид битрейта : Постоянный
Битрейт : 192 Кбит/сек
Каналы : 2 канала
Расположение каналов : Front: L R
Частота : 48,0 КГц
Метод сжатия : С потерями
Размер потока : 32,6 Мбайт (8%)
Заголовок : Mikrobelka & Kari
Язык : Russian
Default : Нет
Forced : Нет

Аудио #3
Идентификатор : 4
Формат : AC-3
Формат/Информация : Audio Coding 3
Расширение режима : CM (complete main)
Параметр Endianness формата : Big
Идентификатор кодека : A_AC3
Продолжительность : 23 м.
Вид битрейта : Постоянный
Битрейт : 192 Кбит/сек
Каналы : 2 канала
Расположение каналов : Front: L R
Частота : 48,0 КГц
Метод сжатия : С потерями
Размер потока : 32,6 Мбайт (8%)
Заголовок : Dancel & Lianna
Язык : Russian
Default : Нет
Forced : Нет

Аудио #4
Идентификатор : 5
Формат : AAC
Формат/Информация : Advanced Audio Codec
Профиль формата : LC
Идентификатор кодека : A_AAC
Продолжительность : 23 м.
Каналы : 2 канала
Расположение каналов : Front: L R
Частота : 48,0 КГц
Метод сжатия : С потерями
Язык : Japanese
Default : Нет
Forced : Нет

Текст #1
Идентификатор : 6
Формат : ASS
Идентификатор кодека : S_TEXT/ASS
Идентификатор кодека/Информация : Advanced Sub Station Alpha
Метод сжатия : Без потерь
Заголовок : AOS Team
Язык : Russian
Default : Да
Forced : Нет

Текст #2
Идентификатор : 7
Формат : ASS
Идентификатор кодека : S_TEXT/ASS
Идентификатор кодека/Информация : Advanced Sub Station Alpha
Метод сжатия : Без потерь
Заголовок : Jenia aka Zub
Язык : Russian
Default : Нет
Forced : Нет

Общее
Уникальный идентификатор : 187528292641613501352846703545797486113 (0x8D14A2AB014949D2881685AAD2F2A621)
Полное имя : H:АнимеKono_ Subarashii_Sekai_ni_Shukufuku_o!_ +OVA [BDRip 720p]Kono Subarashii Sekai ni Shukufuku o! 1 [BDRip] [720p]Kono Subarashii Sekai ni Shukufuku o! - 06 (BDRip 720p).mkv
Формат : Matroska
Версия формата : Version 2
Размер файла : 495 Мбайт
Продолжительность : 23 м.
Общий поток : 2922 Кбит/сек
Дата кодирования : UTC 2018-05-28 00:36:08
Программа кодирования : mkvmerge v5.7.0 ('The Whirlwind') built on Jul 29 2012 15:12:35
Библиотека кодирования : libebml v1.2.3 + libmatroska v1.3.0

Видео
Идентификатор : 1
Формат : AVC
Формат/Информация : Advanced Video Codec
Профиль формата : High@L4
Параметр CABAC формата : Да
Параметр ReFrames формата : 6 кадров
Идентификатор кодека : V_MPEG4/ISO/AVC
Продолжительность : 23 м.
Ширина : 1280 пикселей
Высота : 720 пикселей
Соотношение сторон : 16:9
Режим частоты кадров : Постоянный
Частота кадров : 23,976 кадра/сек
Цветовое пространство : YUV
Субдискретизация насыщенности : 4:2:0
Битовая глубина : 8 бит
Тип развёртки : Прогрессивная
Default : Да
Forced : Нет

Аудио #1
Идентификатор : 2
Формат : AC-3
Формат/Информация : Audio Coding 3
Расширение режима : CM (complete main)
Параметр Endianness формата : Big
Идентификатор кодека : A_AC3
Продолжительность : 23 м.
Вид битрейта : Постоянный
Битрейт : 192 Кбит/сек
Каналы : 2 канала
Расположение каналов : Front: L R
Частота : 48,0 КГц
Метод сжатия : С потерями
Размер потока : 32,5 Мбайт (7%)
Заголовок : Ancord, Trina_D
Язык : Russian
Default : Нет
Forced : Да

Аудио #2
Идентификатор : 3
Формат : AC-3
Формат/Информация : Audio Coding 3
Расширение режима : CM (complete main)
Параметр Endianness формата : Big
Идентификатор кодека : A_AC3
Продолжительность : 23 м.
Вид битрейта : Постоянный
Битрейт : 192 Кбит/сек
Каналы : 2 канала
Расположение каналов : Front: L R
Частота : 48,0 КГц
Метод сжатия : С потерями
Размер потока : 32,5 Мбайт (7%)
Заголовок : Mikrobelka & Kari
Язык : Russian
Default : Нет
Forced : Нет

Аудио #3
Идентификатор : 4
Формат : AC-3
Формат/Информация : Audio Coding 3
Расширение режима : CM (complete main)
Параметр Endianness формата : Big
Идентификатор кодека : A_AC3
Продолжительность : 23 м.
Вид битрейта : Постоянный
Битрейт : 192 Кбит/сек
Каналы : 2 канала
Расположение каналов : Front: L R
Частота : 48,0 КГц
Метод сжатия : С потерями
Размер потока : 32,5 Мбайт (7%)
Заголовок : Dancel & Lianna
Язык : Russian
Default : Нет
Forced : Нет

Аудио #4
Идентификатор : 5
Формат : AAC
Формат/Информация : Advanced Audio Codec
Профиль формата : LC
Идентификатор кодека : A_AAC
Продолжительность : 23 м.
Каналы : 2 канала
Расположение каналов : Front: L R
Частота : 48,0 КГц
Метод сжатия : С потерями
Язык : Japanese
Default : Нет
Forced : Нет

Текст #1
Идентификатор : 6
Формат : ASS
Идентификатор кодека : S_TEXT/ASS
Идентификатор кодека/Информация : Advanced Sub Station Alpha
Метод сжатия : Без потерь
Заголовок : AOS Team
Язык : Russian
Default : Да
Forced : Нет

Текст #2
Идентификатор : 7
Формат : ASS
Идентификатор кодека : S_TEXT/ASS
Идентификатор кодека/Информация : Advanced Sub Station Alpha
Метод сжатия : Без потерь
Заголовок : Jenia aka Zub
Язык : Russian
Default : Нет
Forced : Нет

Общее
Уникальный идентификатор : 182491791825867838376486277792389472128 (0x894AA40185C4F7A0B52FE611AB291F80)
Полное имя : H:АнимеKono_ Subarashii_Sekai_ni_Shukufuku_o!_ +OVA [BDRip 720p]Kono Subarashii Sekai ni Shukufuku o! 1 [BDRip] [720p]Kono Subarashii Sekai ni Shukufuku o! - 07 (BDRip 720p).mkv
Формат : Matroska
Версия формата : Version 2
Размер файла : 376 Мбайт
Продолжительность : 23 м.
Общий поток : 2218 Кбит/сек
Дата кодирования : UTC 2018-05-28 00:38:35
Программа кодирования : mkvmerge v5.7.0 ('The Whirlwind') built on Jul 29 2012 15:12:35
Библиотека кодирования : libebml v1.2.3 + libmatroska v1.3.0

Видео
Идентификатор : 1
Формат : AVC
Формат/Информация : Advanced Video Codec
Профиль формата : High@L4
Параметр CABAC формата : Да
Параметр ReFrames формата : 6 кадров
Идентификатор кодека : V_MPEG4/ISO/AVC
Продолжительность : 23 м.
Ширина : 1280 пикселей
Высота : 720 пикселей
Соотношение сторон : 16:9
Режим частоты кадров : Постоянный
Частота кадров : 23,976 кадра/сек
Цветовое пространство : YUV
Субдискретизация насыщенности : 4:2:0
Битовая глубина : 8 бит
Тип развёртки : Прогрессивная
Default : Да
Forced : Нет

Аудио #1
Идентификатор : 2
Формат : AC-3
Формат/Информация : Audio Coding 3
Расширение режима : CM (complete main)
Параметр Endianness формата : Big
Идентификатор кодека : A_AC3
Продолжительность : 23 м.
Вид битрейта : Постоянный
Битрейт : 192 Кбит/сек
Каналы : 2 канала
Расположение каналов : Front: L R
Частота : 48,0 КГц
Метод сжатия : С потерями
Размер потока : 32,6 Мбайт (9%)
Заголовок : Ancord, Trina_D
Язык : Russian
Default : Нет
Forced : Да

Аудио #2
Идентификатор : 3
Формат : AC-3
Формат/Информация : Audio Coding 3
Расширение режима : CM (complete main)
Параметр Endianness формата : Big
Идентификатор кодека : A_AC3
Продолжительность : 23 м.
Вид битрейта : Постоянный
Битрейт : 192 Кбит/сек
Каналы : 2 канала
Расположение каналов : Front: L R
Частота : 48,0 КГц
Метод сжатия : С потерями
Размер потока : 32,6 Мбайт (9%)
Заголовок : Mikrobelka & Kari
Язык : Russian
Default : Нет
Forced : Нет

Аудио #3
Идентификатор : 4
Формат : AC-3
Формат/Информация : Audio Coding 3
Расширение режима : CM (complete main)
Параметр Endianness формата : Big
Идентификатор кодека : A_AC3
Продолжительность : 23 м.
Вид битрейта : Постоянный
Битрейт : 192 Кбит/сек
Каналы : 2 канала
Расположение каналов : Front: L R
Частота : 48,0 КГц
Метод сжатия : С потерями
Размер потока : 32,6 Мбайт (9%)
Заголовок : Dancel & Lianna
Язык : Russian
Default : Нет
Forced : Нет

Аудио #4
Идентификатор : 5
Формат : AAC
Формат/Информация : Advanced Audio Codec
Профиль формата : LC
Идентификатор кодека : A_AAC
Продолжительность : 23 м.
Каналы : 2 канала
Расположение каналов : Front: L R
Частота : 48,0 КГц
Метод сжатия : С потерями
Язык : Japanese
Default : Нет
Forced : Нет

Текст #1
Идентификатор : 6
Формат : ASS
Идентификатор кодека : S_TEXT/ASS
Идентификатор кодека/Информация : Advanced Sub Station Alpha
Метод сжатия : Без потерь
Заголовок : AOS Team
Язык : Russian
Default : Да
Forced : Нет

Текст #2
Идентификатор : 7
Формат : ASS
Идентификатор кодека : S_TEXT/ASS
Идентификатор кодека/Информация : Advanced Sub Station Alpha
Метод сжатия : Без потерь
Заголовок : Jenia aka Zub
Язык : Russian
Default : Нет
Forced : Нет

Общее
Уникальный идентификатор : 252252483825861515802195342635701234222 (0xBDC60FABC30AD5AD8A428505C29DEA2E)
Полное имя : H:АнимеKono_ Subarashii_Sekai_ni_Shukufuku_o!_ +OVA [BDRip 720p]Kono Subarashii Sekai ni Shukufuku o! 1 [BDRip] [720p]Kono Subarashii Sekai ni Shukufuku o! - 08 (BDRip 720p).mkv
Формат : Matroska
Версия формата : Version 2
Размер файла : 361 Мбайт
Продолжительность : 23 м.
Общий поток : 2128 Кбит/сек
Дата кодирования : UTC 2018-05-28 00:41:39
Программа кодирования : mkvmerge v5.7.0 ('The Whirlwind') built on Jul 29 2012 15:12:35
Библиотека кодирования : libebml v1.2.3 + libmatroska v1.3.0

Видео
Идентификатор : 1
Формат : AVC
Формат/Информация : Advanced Video Codec
Профиль формата : High@L4
Параметр CABAC формата : Да
Параметр ReFrames формата : 6 кадров
Идентификатор кодека : V_MPEG4/ISO/AVC
Продолжительность : 23 м.
Ширина : 1280 пикселей
Высота : 720 пикселей
Соотношение сторон : 16:9
Режим частоты кадров : Постоянный
Частота кадров : 23,976 кадра/сек
Цветовое пространство : YUV
Субдискретизация насыщенности : 4:2:0
Битовая глубина : 8 бит
Тип развёртки : Прогрессивная
Default : Да
Forced : Нет

Аудио #1
Идентификатор : 2
Формат : AC-3
Формат/Информация : Audio Coding 3
Расширение режима : CM (complete main)
Параметр Endianness формата : Big
Идентификатор кодека : A_AC3
Продолжительность : 23 м.
Вид битрейта : Постоянный
Битрейт : 192 Кбит/сек
Каналы : 2 канала
Расположение каналов : Front: L R
Частота : 48,0 КГц
Метод сжатия : С потерями
Размер потока : 32,5 Мбайт (9%)
Заголовок : Ancord, Trina_D
Язык : Russian
Default : Нет
Forced : Да

Аудио #2
Идентификатор : 3
Формат : AC-3
Формат/Информация : Audio Coding 3
Расширение режима : CM (complete main)
Параметр Endianness формата : Big
Идентификатор кодека : A_AC3
Продолжительность : 23 м.
Вид битрейта : Постоянный
Битрейт : 192 Кбит/сек
Каналы : 2 канала
Расположение каналов : Front: L R
Частота : 48,0 КГц
Метод сжатия : С потерями
Размер потока : 32,5 Мбайт (9%)
Заголовок : Mikrobelka & Kari
Язык : Russian
Default : Нет
Forced : Нет

Аудио #3
Идентификатор : 4
Формат : AC-3
Формат/Информация : Audio Coding 3
Расширение режима : CM (complete main)
Параметр Endianness формата : Big
Идентификатор кодека : A_AC3
Продолжительность : 23 м.
Вид битрейта : Постоянный
Битрейт : 192 Кбит/сек
Каналы : 2 канала
Расположение каналов : Front: L R
Частота : 48,0 КГц
Метод сжатия : С потерями
Размер потока : 32,5 Мбайт (9%)
Заголовок : Dancel & Lianna
Язык : Russian
Default : Нет
Forced : Нет

Аудио #4
Идентификатор : 5
Формат : AAC
Формат/Информация : Advanced Audio Codec
Профиль формата : LC
Идентификатор кодека : A_AAC
Продолжительность : 23 м.
Каналы : 2 канала
Расположение каналов : Front: L R
Частота : 48,0 КГц
Метод сжатия : С потерями
Язык : Japanese
Default : Нет
Forced : Нет

Текст #1
Идентификатор : 6
Формат : ASS
Идентификатор кодека : S_TEXT/ASS
Идентификатор кодека/Информация : Advanced Sub Station Alpha
Метод сжатия : Без потерь
Заголовок : AOS Team
Язык : Russian
Default : Да
Forced : Нет

Текст #2
Идентификатор : 7
Формат : ASS
Идентификатор кодека : S_TEXT/ASS
Идентификатор кодека/Информация : Advanced Sub Station Alpha
Метод сжатия : Без потерь
Заголовок : Jenia aka Zub
Язык : Russian
Default : Нет
Forced : Нет

Общее
Уникальный идентификатор : 243586035016248574671232033593178128628 (0xB740F6C15057BE98A8284DFCFB3300F4)
Полное имя : H:АнимеKono_ Subarashii_Sekai_ni_Shukufuku_o!_ +OVA [BDRip 720p]Kono Subarashii Sekai ni Shukufuku o! 1 [BDRip] [720p]Kono Subarashii Sekai ni Shukufuku o! - 09 (BDRip 720p).mkv
Формат : Matroska
Версия формата : Version 2
Размер файла : 358 Мбайт
Продолжительность : 23 м.
Общий поток : 2109 Кбит/сек
Дата кодирования : UTC 2018-05-28 00:45:10
Программа кодирования : mkvmerge v5.7.0 ('The Whirlwind') built on Jul 29 2012 15:12:35
Библиотека кодирования : libebml v1.2.3 + libmatroska v1.3.0

Видео
Идентификатор : 1
Формат : AVC
Формат/Информация : Advanced Video Codec
Профиль формата : High@L4
Параметр CABAC формата : Да
Параметр ReFrames формата : 6 кадров
Идентификатор кодека : V_MPEG4/ISO/AVC
Продолжительность : 23 м.
Ширина : 1280 пикселей
Высота : 720 пикселей
Соотношение сторон : 16:9
Режим частоты кадров : Постоянный
Частота кадров : 23,976 кадра/сек
Цветовое пространство : YUV
Субдискретизация насыщенности : 4:2:0
Битовая глубина : 8 бит
Тип развёртки : Прогрессивная
Default : Да
Forced : Нет

Аудио #1
Идентификатор : 2
Формат : AC-3
Формат/Информация : Audio Coding 3
Расширение режима : CM (complete main)
Параметр Endianness формата : Big
Идентификатор кодека : A_AC3
Продолжительность : 23 м.
Вид битрейта : Постоянный
Битрейт : 192 Кбит/сек
Каналы : 2 канала
Расположение каналов : Front: L R
Частота : 48,0 КГц
Метод сжатия : С потерями
Размер потока : 32,6 Мбайт (9%)
Заголовок : Ancord, Trina_D
Язык : Russian
Default : Нет
Forced : Да

Аудио #2
Идентификатор : 3
Формат : AC-3
Формат/Информация : Audio Coding 3
Расширение режима : CM (complete main)
Параметр Endianness формата : Big
Идентификатор кодека : A_AC3
Продолжительность : 23 м.
Вид битрейта : Постоянный
Битрейт : 192 Кбит/сек
Каналы : 2 канала
Расположение каналов : Front: L R
Частота : 48,0 КГц
Метод сжатия : С потерями
Размер потока : 32,6 Мбайт (9%)
Заголовок : Mikrobelka & Kari
Язык : Russian
Default : Нет
Forced : Нет

Аудио #3
Идентификатор : 4
Формат : AC-3
Формат/Информация : Audio Coding 3
Расширение режима : CM (complete main)
Параметр Endianness формата : Big
Идентификатор кодека : A_AC3
Продолжительность : 23 м.
Вид битрейта : Постоянный
Битрейт : 192 Кбит/сек
Каналы : 2 канала
Расположение каналов : Front: L R
Частота : 48,0 КГц
Метод сжатия : С потерями
Размер потока : 32,6 Мбайт (9%)
Заголовок : Dancel & Lianna
Язык : Russian
Default : Нет
Forced : Нет

Аудио #4
Идентификатор : 5
Формат : AAC
Формат/Информация : Advanced Audio Codec
Профиль формата : LC
Идентификатор кодека : A_AAC
Продолжительность : 23 м.
Каналы : 2 канала
Расположение каналов : Front: L R
Частота : 48,0 КГц
Метод сжатия : С потерями
Язык : Japanese
Default : Нет
Forced : Нет

Текст #1
Идентификатор : 6
Формат : ASS
Идентификатор кодека : S_TEXT/ASS
Идентификатор кодека/Информация : Advanced Sub Station Alpha
Метод сжатия : Без потерь
Заголовок : AOS Team
Язык : Russian
Default : Да
Forced : Нет

Текст #2
Идентификатор : 7
Формат : ASS
Идентификатор кодека : S_TEXT/ASS
Идентификатор кодека/Информация : Advanced Sub Station Alpha
Метод сжатия : Без потерь
Заголовок : Jenia aka Zub
Язык : Russian
Default : Нет
Forced : Нет

Общее
Уникальный идентификатор : 181783905246529554567731343120197512728 (0x88C24E80C219DBB7A537A35FCE086E18)
Полное имя : H:АнимеKono_ Subarashii_Sekai_ni_Shukufuku_o!_ +OVA [BDRip 720p]Kono Subarashii Sekai ni Shukufuku o! 1 [BDRip] [720p]Kono Subarashii Sekai ni Shukufuku o! - 10 (BDRip 720p).mkv
Формат : Matroska
Версия формата : Version 2
Размер файла : 475 Мбайт
Продолжительность : 25 м.
Общий поток : 2638 Кбит/сек
Дата кодирования : UTC 2018-05-28 00:49:22
Программа кодирования : mkvmerge v5.7.0 ('The Whirlwind') built on Jul 29 2012 15:12:35
Библиотека кодирования : libebml v1.2.3 + libmatroska v1.3.0

Видео
Идентификатор : 1
Формат : AVC
Формат/Информация : Advanced Video Codec
Профиль формата : High@L4
Параметр CABAC формата : Да
Параметр ReFrames формата : 6 кадров
Идентификатор кодека : V_MPEG4/ISO/AVC
Продолжительность : 25 м.
Ширина : 1280 пикселей
Высота : 720 пикселей
Соотношение сторон : 16:9
Режим частоты кадров : Постоянный
Частота кадров : 23,976 кадра/сек
Цветовое пространство : YUV
Субдискретизация насыщенности : 4:2:0
Битовая глубина : 8 бит
Тип развёртки : Прогрессивная
Default : Да
Forced : Нет

Аудио #1
Идентификатор : 2
Формат : AC-3
Формат/Информация : Audio Coding 3
Расширение режима : CM (complete main)
Параметр Endianness формата : Big
Идентификатор кодека : A_AC3
Продолжительность : 25 м.
Вид битрейта : Постоянный
Битрейт : 192 Кбит/сек
Каналы : 2 канала
Расположение каналов : Front: L R
Частота : 48,0 КГц
Метод сжатия : С потерями
Размер потока : 34,5 Мбайт (7%)
Заголовок : Ancord, Trina_D
Язык : Russian
Default : Нет
Forced : Да

Аудио #2
Идентификатор : 3
Формат : AC-3
Формат/Информация : Audio Coding 3
Расширение режима : CM (complete main)
Параметр Endianness формата : Big
Идентификатор кодека : A_AC3
Продолжительность : 25 м.
Вид битрейта : Постоянный
Битрейт : 192 Кбит/сек
Каналы : 2 канала
Расположение каналов : Front: L R
Частота : 48,0 КГц
Метод сжатия : С потерями
Размер потока : 34,5 Мбайт (7%)
Заголовок : Mikrobelka & Kari
Язык : Russian
Default : Нет
Forced : Нет

Аудио #3
Идентификатор : 4
Формат : AC-3
Формат/Информация : Audio Coding 3
Расширение режима : CM (complete main)
Параметр Endianness формата : Big
Идентификатор кодека : A_AC3
Продолжительность : 25 м.
Вид битрейта : Постоянный
Битрейт : 192 Кбит/сек
Каналы : 2 канала
Расположение каналов : Front: L R
Частота : 48,0 КГц
Метод сжатия : С потерями
Размер потока : 34,5 Мбайт (7%)
Заголовок : Dancel & Lianna
Язык : Russian
Default : Нет
Forced : Нет

Аудио #4
Идентификатор : 5
Формат : AAC
Формат/Информация : Advanced Audio Codec
Профиль формата : LC
Идентификатор кодека : A_AAC
Продолжительность : 25 м.
Каналы : 2 канала
Расположение каналов : Front: L R
Частота : 48,0 КГц
Метод сжатия : С потерями
Язык : Japanese
Default : Нет
Forced : Нет

Текст #1
Идентификатор : 6
Формат : ASS
Идентификатор кодека : S_TEXT/ASS
Идентификатор кодека/Информация : Advanced Sub Station Alpha
Метод сжатия : Без потерь
Заголовок : AOS Team
Язык : Russian
Default : Да
Forced : Нет

Текст #2
Идентификатор : 7
Формат : ASS
Идентификатор кодека : S_TEXT/ASS
Идентификатор кодека/Информация : Advanced Sub Station Alpha
Метод сжатия : Без потерь
Заголовок : Jenia aka Zub
Язык : Russian
Default : Нет
Forced : Нет

Общее
Уникальный идентификатор : 227235451723661881019221024186415215641 (0xAAF3F4C2520E9548822AE03CD4187419)
Полное имя : H:АнимеKono_ Subarashii_Sekai_ni_Shukufuku_o!_ +OVA [BDRip 720p]Kono Subarashii Sekai ni Shukufuku o! 1 [BDRip] [720p]Kono Subarashii Sekai ni Shukufuku o! - OVA_01 (BDRip 720p).mkv
Формат : Matroska
Версия формата : Version 2
Размер файла : 334 Мбайт
Продолжительность : 23 м.
Общий поток : 1972 Кбит/сек
Дата кодирования : UTC 2018-05-28 01:14:58
Программа кодирования : mkvmerge v5.7.0 ('The Whirlwind') built on Jul 29 2012 15:12:35
Библиотека кодирования : libebml v1.2.3 + libmatroska v1.3.0

Видео
Идентификатор : 1
Формат : AVC
Формат/Информация : Advanced Video Codec
Профиль формата : High@L4
Параметр CABAC формата : Да
Параметр ReFrames формата : 6 кадров
Идентификатор кодека : V_MPEG4/ISO/AVC
Продолжительность : 23 м.
Ширина : 1280 пикселей
Высота : 720 пикселей
Соотношение сторон : 16:9
Режим частоты кадров : Постоянный
Частота кадров : 23,976 кадра/сек
Цветовое пространство : YUV
Субдискретизация насыщенности : 4:2:0
Битовая глубина : 8 бит
Тип развёртки : Прогрессивная
Default : Да
Forced : Нет

Аудио #1
Идентификатор : 2
Формат : AC-3
Формат/Информация : Audio Coding 3
Расширение режима : CM (complete main)
Параметр Endianness формата : Big
Идентификатор кодека : A_AC3
Продолжительность : 23 м.
Вид битрейта : Постоянный
Битрейт : 192 Кбит/сек
Каналы : 2 канала
Расположение каналов : Front: L R
Частота : 48,0 КГц
Метод сжатия : С потерями
Размер потока : 32,5 Мбайт (10%)
Заголовок : Ancord, Trina_D
Язык : Russian
Default : Нет
Forced : Да

Аудио #2
Идентификатор : 3
Формат : AC-3
Формат/Информация : Audio Coding 3
Расширение режима : CM (complete main)
Параметр Endianness формата : Big
Идентификатор кодека : A_AC3
Продолжительность : 23 м.
Вид битрейта : Постоянный
Битрейт : 192 Кбит/сек
Каналы : 2 канала
Расположение каналов : Front: L R
Частота : 48,0 КГц
Метод сжатия : С потерями
Размер потока : 32,5 Мбайт (10%)
Заголовок : Kari & Lali
Язык : Russian
Default : Нет
Forced : Нет

Аудио #3
Идентификатор : 4
Формат : AC-3
Формат/Информация : Audio Coding 3
Расширение режима : CM (complete main)
Параметр Endianness формата : Big
Идентификатор кодека : A_AC3
Продолжительность : 23 м.
Вид битрейта : Постоянный
Битрейт : 192 Кбит/сек
Каналы : 2 канала
Расположение каналов : Front: L R
Частота : 48,0 КГц
Метод сжатия : С потерями
Размер потока : 32,5 Мбайт (10%)
Заголовок : Dancel & Lianna
Язык : Russian
Default : Нет
Forced : Нет

Аудио #4
Идентификатор : 5
Формат : AAC
Формат/Информация : Advanced Audio Codec
Профиль формата : LC
Идентификатор кодека : A_AAC
Продолжительность : 23 м.
Каналы : 2 канала
Расположение каналов : Front: L R
Частота : 48,0 КГц
Метод сжатия : С потерями
Язык : Japanese
Default : Нет
Forced : Нет

Текст #1
Идентификатор : 6
Формат : ASS
Идентификатор кодека : S_TEXT/ASS
Идентификатор кодека/Информация : Advanced Sub Station Alpha
Метод сжатия : Без потерь
Заголовок : AleX_MytH, batyrmastyr, Nachtwandler, Seiya Loveless, Атом, Матадор
Язык : Russian
Default : Да
Forced : Нет

Текст #2
Идентификатор : 7
Формат : ASS
Идентификатор кодека : S_TEXT/ASS
Идентификатор кодека/Информация : Advanced Sub Station Alpha
Метод сжатия : Без потерь
Заголовок : AOS Team
Язык : Russian
Default : Нет
Forced : Нет

Текст #3
Идентификатор : 8
Формат : ASS
Идентификатор кодека : S_TEXT/ASS
Идентификатор кодека/Информация : Advanced Sub Station Alpha
Метод сжатия : Без потерь
Заголовок : Jenia aka Zub
Язык : Russian
Default : Нет
Forced : Нет

Общее
Уникальный идентификатор : 212000839153142255567214588236034198309 (0x9F7DE05E1C841A94A7BCE30B53A7CB25)
Полное имя : H:АнимеKono_ Subarashii_Sekai_ni_Shukufuku_o!_ +OVA [BDRip 720p]Kono Subarashii Sekai ni Shukufuku o! 2 [BDRip] [720p]Kono Subarashii Sekai ni Shukufuku o! 2 - 01 (BDRip 720p).mkv
Формат : Matroska
Версия формата : Version 2
Размер файла : 399 Мбайт
Продолжительность : 25 м.
Общий поток : 2214 Кбит/сек
Дата кодирования : UTC 2018-05-28 02:23:11
Программа кодирования : mkvmerge v5.7.0 ('The Whirlwind') built on Jul 29 2012 15:12:35
Библиотека кодирования : libebml v1.2.3 + libmatroska v1.3.0

Видео
Идентификатор : 1
Формат : AVC
Формат/Информация : Advanced Video Codec
Профиль формата : High@L4
Параметр CABAC формата : Да
Параметр ReFrames формата : 6 кадров
Идентификатор кодека : V_MPEG4/ISO/AVC
Продолжительность : 25 м.
Ширина : 1280 пикселей
Высота : 720 пикселей
Соотношение сторон : 16:9
Режим частоты кадров : Постоянный
Частота кадров : 23,976 кадра/сек
Цветовое пространство : YUV
Субдискретизация насыщенности : 4:2:0
Битовая глубина : 8 бит
Тип развёртки : Прогрессивная
Default : Да
Forced : Нет

Аудио #1
Идентификатор : 2
Формат : AC-3
Формат/Информация : Audio Coding 3
Расширение режима : CM (complete main)
Параметр Endianness формата : Big
Идентификатор кодека : A_AC3
Продолжительность : 25 м.
Вид битрейта : Постоянный
Битрейт : 192 Кбит/сек
Каналы : 2 канала
Расположение каналов : Front: L R
Частота : 48,0 КГц
Метод сжатия : С потерями
Размер потока : 34,6 Мбайт (9%)
Заголовок : Ancord, Trina_D
Язык : Russian
Default : Нет
Forced : Да

Аудио #2
Идентификатор : 3
Формат : AC-3
Формат/Информация : Audio Coding 3
Расширение режима : CM (complete main)
Параметр Endianness формата : Big
Идентификатор кодека : A_AC3
Продолжительность : 25 м.
Вид битрейта : Постоянный
Битрейт : 192 Кбит/сек
Каналы : 2 канала
Расположение каналов : Front: L R
Частота : 48,0 КГц
Метод сжатия : С потерями
Размер потока : 34,6 Мбайт (9%)
Заголовок : Kari & Lali & Sharon & Cleo-chan
Язык : Russian
Default : Нет
Forced : Нет

Аудио #3
Идентификатор : 4
Формат : AC-3
Формат/Информация : Audio Coding 3
Расширение режима : CM (complete main)
Параметр Endianness формата : Big
Идентификатор кодека : A_AC3
Продолжительность : 25 м.
Вид битрейта : Постоянный
Битрейт : 192 Кбит/сек
Каналы : 2 канала
Расположение каналов : Front: L R
Частота : 48,0 КГц
Метод сжатия : С потерями
Размер потока : 34,6 Мбайт (9%)
Заголовок : Dancel & RJ Pandora & Lianna
Язык : Russian
Default : Нет
Forced : Нет

Аудио #4
Идентификатор : 5
Формат : AAC
Формат/Информация : Advanced Audio Codec
Профиль формата : LC
Идентификатор кодека : A_AAC
Продолжительность : 25 м.
Каналы : 2 канала
Расположение каналов : Front: L R
Частота : 48,0 КГц
Метод сжатия : С потерями
Язык : Japanese
Default : Нет
Forced : Нет

Текст #1
Идентификатор : 6
Формат : ASS
Идентификатор кодека : S_TEXT/ASS
Идентификатор кодека/Информация : Advanced Sub Station Alpha
Метод сжатия : Без потерь
Заголовок : AOS Team
Язык : Russian
Default : Да
Forced : Нет

Текст #2
Идентификатор : 7
Формат : ASS
Идентификатор кодека : S_TEXT/ASS
Идентификатор кодека/Информация : Advanced Sub Station Alpha
Метод сжатия : Без потерь
Заголовок : Jenia aka Zub
Язык : Russian
Default : Нет
Forced : Нет

Общее
Уникальный идентификатор : 222900808669115504816729434337861041758 (0xA7B1225B382C2F49B1A00B29D7EDFE5E)
Полное имя : H:АнимеKono_ Subarashii_Sekai_ni_Shukufuku_o!_ +OVA [BDRip 720p]Kono Subarashii Sekai ni Shukufuku o! 2 [BDRip] [720p]Kono Subarashii Sekai ni Shukufuku o! 2 - 02 (BDRip 720p).mkv
Формат : Matroska
Версия формата : Version 2
Размер файла : 406 Мбайт
Продолжительность : 23 м.
Общий поток : 2398 Кбит/сек
Дата кодирования : UTC 2018-05-28 02:25:50
Программа кодирования : mkvmerge v5.7.0 ('The Whirlwind') built on Jul 29 2012 15:12:35
Библиотека кодирования : libebml v1.2.3 + libmatroska v1.3.0

Видео
Идентификатор : 1
Формат : AVC
Формат/Информация : Advanced Video Codec
Профиль формата : High@L4
Параметр CABAC формата : Да
Параметр ReFrames формата : 6 кадров
Идентификатор кодека : V_MPEG4/ISO/AVC
Продолжительность : 23 м.
Ширина : 1280 пикселей
Высота : 720 пикселей
Соотношение сторон : 16:9
Режим частоты кадров : Постоянный
Частота кадров : 23,976 кадра/сек
Цветовое пространство : YUV
Субдискретизация насыщенности : 4:2:0
Битовая глубина : 8 бит
Тип развёртки : Прогрессивная
Default : Да
Forced : Нет

Аудио #1
Идентификатор : 2
Формат : AC-3
Формат/Информация : Audio Coding 3
Расширение режима : CM (complete main)
Параметр Endianness формата : Big
Идентификатор кодека : A_AC3
Продолжительность : 23 м.
Вид битрейта : Постоянный
Битрейт : 192 Кбит/сек
Каналы : 2 канала
Расположение каналов : Front: L R
Частота : 48,0 КГц
Метод сжатия : С потерями
Размер потока : 32,5 Мбайт (8%)
Заголовок : Ancord, Trina_D
Язык : Russian
Default : Нет
Forced : Да

Аудио #2
Идентификатор : 3
Формат : AC-3
Формат/Информация : Audio Coding 3
Расширение режима : CM (complete main)
Параметр Endianness формата : Big
Идентификатор кодека : A_AC3
Продолжительность : 23 м.
Вид битрейта : Постоянный
Битрейт : 192 Кбит/сек
Каналы : 2 канала
Расположение каналов : Front: L R
Частота : 48,0 КГц
Метод сжатия : С потерями
Размер потока : 32,5 Мбайт (8%)
Заголовок : Kari & Lali & Sharon & Cleo-chan
Язык : Russian
Default : Нет
Forced : Нет

Аудио #3
Идентификатор : 4
Формат : AC-3
Формат/Информация : Audio Coding 3
Расширение режима : CM (complete main)
Параметр Endianness формата : Big
Идентификатор кодека : A_AC3
Продолжительность : 23 м.
Вид битрейта : Постоянный
Битрейт : 192 Кбит/сек
Каналы : 2 канала
Расположение каналов : Front: L R
Частота : 48,0 КГц
Метод сжатия : С потерями
Размер потока : 32,5 Мбайт (8%)
Заголовок : Dancel & RJ Pandora & Lianna
Язык : Russian
Default : Нет
Forced : Нет

Аудио #4
Идентификатор : 5
Формат : AAC
Формат/Информация : Advanced Audio Codec
Профиль формата : LC
Идентификатор кодека : A_AAC
Продолжительность : 23 м.
Каналы : 2 канала
Расположение каналов : Front: L R
Частота : 48,0 КГц
Метод сжатия : С потерями
Язык : Japanese
Default : Нет
Forced : Нет

Текст #1
Идентификатор : 6
Формат : ASS
Идентификатор кодека : S_TEXT/ASS
Идентификатор кодека/Информация : Advanced Sub Station Alpha
Метод сжатия : Без потерь
Заголовок : AOS Team
Язык : Russian
Default : Да
Forced : Нет

Текст #2
Идентификатор : 7
Формат : ASS
Идентификатор кодека : S_TEXT/ASS
Идентификатор кодека/Информация : Advanced Sub Station Alpha
Метод сжатия : Без потерь
Заголовок : Jenia aka Zub
Язык : Russian
Default : Нет
Forced : Нет

Общее
Уникальный идентификатор : 210304884596609628898844024951069484093 (0x9E373F5A2A1D58E8AA7FF2CD0C58243D)
Полное имя : H:АнимеKono_ Subarashii_Sekai_ni_Shukufuku_o!_ +OVA [BDRip 720p]Kono Subarashii Sekai ni Shukufuku o! 2 [BDRip] [720p]Kono Subarashii Sekai ni Shukufuku o! 2 - 03 (BDRip 720p).mkv
Формат : Matroska
Версия формата : Version 2
Размер файла : 396 Мбайт
Продолжительность : 23 м.
Общий поток : 2337 Кбит/сек
Дата кодирования : UTC 2018-05-28 02:27:41
Программа кодирования : mkvmerge v5.7.0 ('The Whirlwind') built on Jul 29 2012 15:12:35
Библиотека кодирования : libebml v1.2.3 + libmatroska v1.3.0

Видео
Идентификатор : 1
Формат : AVC
Формат/Информация : Advanced Video Codec
Профиль формата : High@L4
Параметр CABAC формата : Да
Параметр ReFrames формата : 6 кадров
Идентификатор кодека : V_MPEG4/ISO/AVC
Продолжительность : 23 м.
Ширина : 1280 пикселей
Высота : 720 пикселей
Соотношение сторон : 16:9
Режим частоты кадров : Постоянный
Частота кадров : 23,976 кадра/сек
Цветовое пространство : YUV
Субдискретизация насыщенности : 4:2:0
Битовая глубина : 8 бит
Тип развёртки : Прогрессивная
Default : Да
Forced : Нет

Аудио #1
Идентификатор : 2
Формат : AC-3
Формат/Информация : Audio Coding 3
Расширение режима : CM (complete main)
Параметр Endianness формата : Big
Идентификатор кодека : A_AC3
Продолжительность : 23 м.
Вид битрейта : Постоянный
Битрейт : 192 Кбит/сек
Каналы : 2 канала
Расположение каналов : Front: L R
Частота : 48,0 КГц
Метод сжатия : С потерями
Размер потока : 32,6 Мбайт (8%)
Заголовок : Ancord, Trina_D
Язык : Russian
Default : Нет
Forced : Да

Аудио #2
Идентификатор : 3
Формат : AC-3
Формат/Информация : Audio Coding 3
Расширение режима : CM (complete main)
Параметр Endianness формата : Big
Идентификатор кодека : A_AC3
Продолжительность : 23 м.
Вид битрейта : Постоянный
Битрейт : 192 Кбит/сек
Каналы : 2 канала
Расположение каналов : Front: L R
Частота : 48,0 КГц
Метод сжатия : С потерями
Размер потока : 32,6 Мбайт (8%)
Заголовок : Kari & Lali & Sharon & Cleo-chan
Язык : Russian
Default : Нет
Forced : Нет

Аудио #3
Идентификатор : 4
Формат : AC-3
Формат/Информация : Audio Coding 3
Расширение режима : CM (complete main)
Параметр Endianness формата : Big
Идентификатор кодека : A_AC3
Продолжительность : 23 м.
Вид битрейта : Постоянный
Битрейт : 192 Кбит/сек
Каналы : 2 канала
Расположение каналов : Front: L R
Частота : 48,0 КГц
Метод сжатия : С потерями
Размер потока : 32,6 Мбайт (8%)
Заголовок : Dancel & RJ Pandora & Lianna
Язык : Russian
Default : Нет
Forced : Нет

Аудио #4
Идентификатор : 5
Формат : AAC
Формат/Информация : Advanced Audio Codec
Профиль формата : LC
Идентификатор кодека : A_AAC
Продолжительность : 23 м.
Каналы : 2 канала
Расположение каналов : Front: L R
Частота : 48,0 КГц
Метод сжатия : С потерями
Язык : Japanese
Default : Нет
Forced : Нет

Текст #1
Идентификатор : 6
Формат : ASS
Идентификатор кодека : S_TEXT/ASS
Идентификатор кодека/Информация : Advanced Sub Station Alpha
Метод сжатия : Без потерь
Заголовок : AOS Team
Язык : Russian
Default : Да
Forced : Нет

Текст #2
Идентификатор : 7
Формат : ASS
Идентификатор кодека : S_TEXT/ASS
Идентификатор кодека/Информация : Advanced Sub Station Alpha
Метод сжатия : Без потерь
Заголовок : Jenia aka Zub
Язык : Russian
Default : Нет
Forced : Нет

Общее
Уникальный идентификатор : 202590163005680952303940111747335224376 (0x986972360A60E57AA02411552F727C38)
Полное имя : H:АнимеKono_ Subarashii_Sekai_ni_Shukufuku_o!_ +OVA [BDRip 720p]Kono Subarashii Sekai ni Shukufuku o! 2 [BDRip] [720p]Kono Subarashii Sekai ni Shukufuku o! 2 - 04 (BDRip 720p).mkv
Формат : Matroska
Версия формата : Version 2
Размер файла : 368 Мбайт
Продолжительность : 23 м.
Общий поток : 2175 Кбит/сек
Дата кодирования : UTC 2018-05-28 02:29:56
Программа кодирования : mkvmerge v5.7.0 ('The Whirlwind') built on Jul 29 2012 15:12:35
Библиотека кодирования : libebml v1.2.3 + libmatroska v1.3.0

Видео
Идентификатор : 1
Формат : AVC
Формат/Информация : Advanced Video Codec
Профиль формата : High@L4
Параметр CABAC формата : Да
Параметр ReFrames формата : 6 кадров
Идентификатор кодека : V_MPEG4/ISO/AVC
Продолжительность : 23 м.
Ширина : 1280 пикселей
Высота : 720 пикселей
Соотношение сторон : 16:9
Режим частоты кадров : Постоянный
Частота кадров : 23,976 кадра/сек
Цветовое пространство : YUV
Субдискретизация насыщенности : 4:2:0
Битовая глубина : 8 бит
Тип развёртки : Прогрессивная
Default : Да
Forced : Нет

Аудио #1
Идентификатор : 2
Формат : AC-3
Формат/Информация : Audio Coding 3
Расширение режима : CM (complete main)
Параметр Endianness формата : Big
Идентификатор кодека : A_AC3
Продолжительность : 23 м.
Вид битрейта : Постоянный
Битрейт : 192 Кбит/сек
Каналы : 2 канала
Расположение каналов : Front: L R
Частота : 48,0 КГц
Метод сжатия : С потерями
Размер потока : 32,5 Мбайт (9%)
Заголовок : Ancord, Trina_D
Язык : Russian
Default : Нет
Forced : Да

Аудио #2
Идентификатор : 3
Формат : AC-3
Формат/Информация : Audio Coding 3
Расширение режима : CM (complete main)
Параметр Endianness формата : Big
Идентификатор кодека : A_AC3
Продолжительность : 23 м.
Вид битрейта : Постоянный
Битрейт : 192 Кбит/сек
Каналы : 2 канала
Расположение каналов : Front: L R
Частота : 48,0 КГц
Метод сжатия : С потерями
Размер потока : 32,5 Мбайт (9%)
Заголовок : Kari & Lali & Sharon & Cleo-chan
Язык : Russian
Default : Нет
Forced : Нет

Аудио #3
Идентификатор : 4
Формат : AC-3
Формат/Информация : Audio Coding 3
Расширение режима : CM (complete main)
Параметр Endianness формата : Big
Идентификатор кодека : A_AC3
Продолжительность : 23 м.
Вид битрейта : Постоянный
Битрейт : 192 Кбит/сек
Каналы : 2 канала
Расположение каналов : Front: L R
Частота : 48,0 КГц
Метод сжатия : С потерями
Размер потока : 32,5 Мбайт (9%)
Заголовок : Dancel & RJ Pandora & Lianna
Язык : Russian
Default : Нет
Forced : Нет

Аудио #4
Идентификатор : 5
Формат : AAC
Формат/Информация : Advanced Audio Codec
Профиль формата : LC
Идентификатор кодека : A_AAC
Продолжительность : 23 м.
Каналы : 2 канала
Расположение каналов : Front: L R
Частота : 48,0 КГц
Метод сжатия : С потерями
Язык : Japanese
Default : Нет
Forced : Нет

Текст #1
Идентификатор : 6
Формат : ASS
Идентификатор кодека : S_TEXT/ASS
Идентификатор кодека/Информация : Advanced Sub Station Alpha
Метод сжатия : Без потерь
Заголовок : AOS Team
Язык : Russian
Default : Да
Forced : Нет

Текст #2
Идентификатор : 7
Формат : ASS
Идентификатор кодека : S_TEXT/ASS
Идентификатор кодека/Информация : Advanced Sub Station Alpha
Метод сжатия : Без потерь
Заголовок : Jenia aka Zub
Язык : Russian
Default : Нет
Forced : Нет

Общее
Уникальный идентификатор : 194419869006946468273479961390253246670 (0x9243E79DB96D614697C41CDB8C1688CE)
Полное имя : H:АнимеKono_ Subarashii_Sekai_ni_Shukufuku_o!_ +OVA [BDRip 720p]Kono Subarashii Sekai ni Shukufuku o! 2 [BDRip] [720p]Kono Subarashii Sekai ni Shukufuku o! 2 - 05 (BDRip 720p).mkv
Формат : Matroska
Версия формата : Version 2
Размер файла : 430 Мбайт
Продолжительность : 26 м.
Общий поток : 2252 Кбит/сек
Дата кодирования : UTC 2018-05-28 02:32:09
Программа кодирования : mkvmerge v5.7.0 ('The Whirlwind') built on Jul 29 2012 15:12:35
Библиотека кодирования : libebml v1.2.3 + libmatroska v1.3.0

Видео
Идентификатор : 1
Формат : AVC
Формат/Информация : Advanced Video Codec
Профиль формата : High@L4
Параметр CABAC формата : Да
Параметр ReFrames формата : 6 кадров
Идентификатор кодека : V_MPEG4/ISO/AVC
Продолжительность : 26 м.
Ширина : 1280 пикселей
Высота : 720 пикселей
Соотношение сторон : 16:9
Режим частоты кадров : Постоянный
Частота кадров : 23,976 кадра/сек
Цветовое пространство : YUV
Субдискретизация насыщенности : 4:2:0
Битовая глубина : 8 бит
Тип развёртки : Прогрессивная
Default : Да
Forced : Нет

Аудио #1
Идентификатор : 2
Формат : AC-3
Формат/Информация : Audio Coding 3
Расширение режима : CM (complete main)
Параметр Endianness формата : Big
Идентификатор кодека : A_AC3
Продолжительность : 26 м.
Вид битрейта : Постоянный
Битрейт : 192 Кбит/сек
Каналы : 2 канала
Расположение каналов : Front: L R
Частота : 48,0 КГц
Метод сжатия : С потерями
Размер потока : 36,7 Мбайт (9%)
Заголовок : Ancord, Trina_D
Язык : Russian
Default : Нет
Forced : Да

Аудио #2
Идентификатор : 3
Формат : AC-3
Формат/Информация : Audio Coding 3
Расширение режима : CM (complete main)
Параметр Endianness формата : Big
Идентификатор кодека : A_AC3
Продолжительность : 26 м.
Вид битрейта : Постоянный
Битрейт : 192 Кбит/сек
Каналы : 2 канала
Расположение каналов : Front: L R
Частота : 48,0 КГц
Метод сжатия : С потерями
Размер потока : 36,7 Мбайт (9%)
Заголовок : Kari & Lali & Sharon & Cleo-chan
Язык : Russian
Default : Нет
Forced : Нет

Аудио #3
Идентификатор : 4
Формат : AC-3
Формат/Информация : Audio Coding 3
Расширение режима : CM (complete main)
Параметр Endianness формата : Big
Идентификатор кодека : A_AC3
Продолжительность : 26 м.
Вид битрейта : Постоянный
Битрейт : 192 Кбит/сек
Каналы : 2 канала
Расположение каналов : Front: L R
Частота : 48,0 КГц
Метод сжатия : С потерями
Размер потока : 36,7 Мбайт (9%)
Заголовок : Dancel & RJ Pandora & Lianna
Язык : Russian
Default : Нет
Forced : Нет

Аудио #4
Идентификатор : 5
Формат : AAC
Формат/Информация : Advanced Audio Codec
Профиль формата : LC
Идентификатор кодека : A_AAC
Продолжительность : 26 м.
Каналы : 2 канала
Расположение каналов : Front: L R
Частота : 48,0 КГц
Метод сжатия : С потерями
Язык : Japanese
Default : Нет
Forced : Нет

Текст #1
Идентификатор : 6
Формат : ASS
Идентификатор кодека : S_TEXT/ASS
Идентификатор кодека/Информация : Advanced Sub Station Alpha
Метод сжатия : Без потерь
Заголовок : AOS Team
Язык : Russian
Default : Да
Forced : Нет

Текст #2
Идентификатор : 7
Формат : ASS
Идентификатор кодека : S_TEXT/ASS
Идентификатор кодека/Информация : Advanced Sub Station Alpha
Метод сжатия : Без потерь
Заголовок : Jenia aka Zub
Язык : Russian
Default : Нет
Forced : Нет

Общее
Уникальный идентификатор : 228874041227685517059927987722660082139 (0xAC2F897582EBD0F2BA678EAEB73FF1DB)
Полное имя : H:АнимеKono_ Subarashii_Sekai_ni_Shukufuku_o!_ +OVA [BDRip 720p]Kono Subarashii Sekai ni Shukufuku o! 2 [BDRip] [720p]Kono Subarashii Sekai ni Shukufuku o! 2 - 06 (BDRip 720p).mkv
Формат : Matroska
Версия формата : Version 2
Размер файла : 381 Мбайт
Продолжительность : 23 м.
Общий поток : 2248 Кбит/сек
Дата кодирования : UTC 2018-05-28 02:35:38
Программа кодирования : mkvmerge v5.7.0 ('The Whirlwind') built on Jul 29 2012 15:12:35
Библиотека кодирования : libebml v1.2.3 + libmatroska v1.3.0

Видео
Идентификатор : 1
Формат : AVC
Формат/Информация : Advanced Video Codec
Профиль формата : High@L4
Параметр CABAC формата : Да
Параметр ReFrames формата : 6 кадров
Идентификатор кодека : V_MPEG4/ISO/AVC
Продолжительность : 23 м.
Ширина : 1280 пикселей
Высота : 720 пикселей
Соотношение сторон : 16:9
Режим частоты кадров : Постоянный
Частота кадров : 23,976 кадра/сек
Цветовое пространство : YUV
Субдискретизация насыщенности : 4:2:0
Битовая глубина : 8 бит
Тип развёртки : Прогрессивная
Default : Да
Forced : Нет

Аудио #1
Идентификатор : 2
Формат : AC-3
Формат/Информация : Audio Coding 3
Расширение режима : CM (complete main)
Параметр Endianness формата : Big
Идентификатор кодека : A_AC3
Продолжительность : 23 м.
Вид битрейта : Постоянный
Битрейт : 192 Кбит/сек
Каналы : 2 канала
Расположение каналов : Front: L R
Частота : 48,0 КГц
Метод сжатия : С потерями
Размер потока : 32,5 Мбайт (9%)
Заголовок : Ancord, Trina_D
Язык : Russian
Default : Нет
Forced : Да

Аудио #2
Идентификатор : 3
Формат : AC-3
Формат/Информация : Audio Coding 3
Расширение режима : CM (complete main)
Параметр Endianness формата : Big
Идентификатор кодека : A_AC3
Продолжительность : 23 м.
Вид битрейта : Постоянный
Битрейт : 192 Кбит/сек
Каналы : 2 канала
Расположение каналов : Front: L R
Частота : 48,0 КГц
Метод сжатия : С потерями
Размер потока : 32,5 Мбайт (9%)
Заголовок : Kari & Lali & Sharon & Cleo-chan
Язык : Russian
Default : Нет
Forced : Нет

Аудио #3
Идентификатор : 4
Формат : AC-3
Формат/Информация : Audio Coding 3
Расширение режима : CM (complete main)
Параметр Endianness формата : Big
Идентификатор кодека : A_AC3
Продолжительность : 23 м.
Вид битрейта : Постоянный
Битрейт : 192 Кбит/сек
Каналы : 2 канала
Расположение каналов : Front: L R
Частота : 48,0 КГц
Метод сжатия : С потерями
Размер потока : 32,5 Мбайт (9%)
Заголовок : Dancel & RJ Pandora & Lianna
Язык : Russian
Default : Нет
Forced : Нет

Аудио #4
Идентификатор : 5
Формат : AAC
Формат/Информация : Advanced Audio Codec
Профиль формата : LC
Идентификатор кодека : A_AAC
Продолжительность : 23 м.
Каналы : 2 канала
Расположение каналов : Front: L R
Частота : 48,0 КГц
Метод сжатия : С потерями
Язык : Japanese
Default : Нет
Forced : Нет

Текст #1
Идентификатор : 6
Формат : ASS
Идентификатор кодека : S_TEXT/ASS
Идентификатор кодека/Информация : Advanced Sub Station Alpha
Метод сжатия : Без потерь
Заголовок : AOS Team
Язык : Russian
Default : Да
Forced : Нет

Текст #2
Идентификатор : 7
Формат : ASS
Идентификатор кодека : S_TEXT/ASS
Идентификатор кодека/Информация : Advanced Sub Station Alpha
Метод сжатия : Без потерь
Заголовок : Jenia aka Zub
Язык : Russian
Default : Нет
Forced : Нет

Общее
Уникальный идентификатор : 226473176912758161193780810744831717316 (0xAA6125B5901580369898D959B584AFC4)
Полное имя : H:АнимеKono_ Subarashii_Sekai_ni_Shukufuku_o!_ +OVA [BDRip 720p]Kono Subarashii Sekai ni Shukufuku o! 2 [BDRip] [720p]Kono Subarashii Sekai ni Shukufuku o! 2 - 07 (BDRip 720p).mkv
Формат : Matroska
Версия формата : Version 2
Размер файла : 372 Мбайт
Продолжительность : 23 м.
Общий поток : 2191 Кбит/сек
Дата кодирования : UTC 2018-05-28 02:37:52
Программа кодирования : mkvmerge v5.7.0 ('The Whirlwind') built on Jul 29 2012 15:12:35
Библиотека кодирования : libebml v1.2.3 + libmatroska v1.3.0

Видео
Идентификатор : 1
Формат : AVC
Формат/Информация : Advanced Video Codec
Профиль формата : High@L4
Параметр CABAC формата : Да
Параметр ReFrames формата : 6 кадров
Идентификатор кодека : V_MPEG4/ISO/AVC
Продолжительность : 23 м.
Ширина : 1280 пикселей
Высота : 720 пикселей
Соотношение сторон : 16:9
Режим частоты кадров : Постоянный
Частота кадров : 23,976 кадра/сек
Цветовое пространство : YUV
Субдискретизация насыщенности : 4:2:0
Битовая глубина : 8 бит
Тип развёртки : Прогрессивная
Default : Да
Forced : Нет

Аудио #1
Идентификатор : 2
Формат : AC-3
Формат/Информация : Audio Coding 3
Расширение режима : CM (complete main)
Параметр Endianness формата : Big
Идентификатор кодека : A_AC3
Продолжительность : 23 м.
Вид битрейта : Постоянный
Битрейт : 192 Кбит/сек
Каналы : 2 канала
Расположение каналов : Front: L R
Частота : 48,0 КГц
Метод сжатия : С потерями
Размер потока : 32,6 Мбайт (9%)
Заголовок : Ancord, Trina_D
Язык : Russian
Default : Нет
Forced : Да

Аудио #2
Идентификатор : 3
Формат : AC-3
Формат/Информация : Audio Coding 3
Расширение режима : CM (complete main)
Параметр Endianness формата : Big
Идентификатор кодека : A_AC3
Продолжительность : 23 м.
Вид битрейта : Постоянный
Битрейт : 192 Кбит/сек
Каналы : 2 канала
Расположение каналов : Front: L R
Частота : 48,0 КГц
Метод сжатия : С потерями
Размер потока : 32,6 Мбайт (9%)
Заголовок : Kari & Lali & Sharon & Cleo-chan
Язык : Russian
Default : Нет
Forced : Нет

Аудио #3
Идентификатор : 4
Формат : AC-3
Формат/Информация : Audio Coding 3
Расширение режима : CM (complete main)
Параметр Endianness формата : Big
Идентификатор кодека : A_AC3
Продолжительность : 23 м.
Вид битрейта : Постоянный
Битрейт : 192 Кбит/сек
Каналы : 2 канала
Расположение каналов : Front: L R
Частота : 48,0 КГц
Метод сжатия : С потерями
Размер потока : 32,6 Мбайт (9%)
Заголовок : Dancel & RJ Pandora & Лизавета
Язык : Russian
Default : Нет
Forced : Нет

Аудио #4
Идентификатор : 5
Формат : AAC
Формат/Информация : Advanced Audio Codec
Профиль формата : LC
Идентификатор кодека : A_AAC
Продолжительность : 23 м.
Каналы : 2 канала
Расположение каналов : Front: L R
Частота : 48,0 КГц
Метод сжатия : С потерями
Язык : Japanese
Default : Нет
Forced : Нет

Текст #1
Идентификатор : 6
Формат : ASS
Идентификатор кодека : S_TEXT/ASS
Идентификатор кодека/Информация : Advanced Sub Station Alpha
Метод сжатия : Без потерь
Заголовок : AOS Team
Язык : Russian
Default : Да
Forced : Нет

Текст #2
Идентификатор : 7
Формат : ASS
Идентификатор кодека : S_TEXT/ASS
Идентификатор кодека/Информация : Advanced Sub Station Alpha
Метод сжатия : Без потерь
Заголовок : Jenia aka Zub
Язык : Russian
Default : Нет
Forced : Нет

Общее
Уникальный идентификатор : 234514128376430587164140758040773029488 (0xB06DC739920338FCBCC246EB1E7E6E70)
Полное имя : H:АнимеKono_ Subarashii_Sekai_ni_Shukufuku_o!_ +OVA [BDRip 720p]Kono Subarashii Sekai ni Shukufuku o! 2 [BDRip] [720p]Kono Subarashii Sekai ni Shukufuku o! 2 - 08 (BDRip 720p).mkv
Формат : Matroska
Версия формата : Version 2
Размер файла : 440 Мбайт
Продолжительность : 23 м.
Общий поток : 2598 Кбит/сек
Дата кодирования : UTC 2018-05-28 02:40:01
Программа кодирования : mkvmerge v5.7.0 ('The Whirlwind') built on Jul 29 2012 15:12:35
Библиотека кодирования : libebml v1.2.3 + libmatroska v1.3.0

Видео
Идентификатор : 1
Формат : AVC
Формат/Информация : Advanced Video Codec
Профиль формата : High@L4
Параметр CABAC формата : Да
Параметр ReFrames формата : 6 кадров
Идентификатор кодека : V_MPEG4/ISO/AVC
Продолжительность : 23 м.
Ширина : 1280 пикселей
Высота : 720 пикселей
Соотношение сторон : 16:9
Режим частоты кадров : Постоянный
Частота кадров : 23,976 кадра/сек
Цветовое пространство : YUV
Субдискретизация насыщенности : 4:2:0
Битовая глубина : 8 бит
Тип развёртки : Прогрессивная
Default : Да
Forced : Нет

Аудио #1
Идентификатор : 2
Формат : AC-3
Формат/Информация : Audio Coding 3
Расширение режима : CM (complete main)
Параметр Endianness формата : Big
Идентификатор кодека : A_AC3
Продолжительность : 23 м.
Вид битрейта : Постоянный
Битрейт : 192 Кбит/сек
Каналы : 2 канала
Расположение каналов : Front: L R
Частота : 48,0 КГц
Метод сжатия : С потерями
Размер потока : 32,5 Мбайт (7%)
Заголовок : Ancord, Trina_D
Язык : Russian
Default : Нет
Forced : Да

Аудио #2
Идентификатор : 3
Формат : AC-3
Формат/Информация : Audio Coding 3
Расширение режима : CM (complete main)
Параметр Endianness формата : Big
Идентификатор кодека : A_AC3
Продолжительность : 23 м.
Вид битрейта : Постоянный
Битрейт : 192 Кбит/сек
Каналы : 2 канала
Расположение каналов : Front: L R
Частота : 48,0 КГц
Метод сжатия : С потерями
Размер потока : 32,5 Мбайт (7%)
Заголовок : Kari & Lali & Sharon & Cleo-chan
Язык : Russian
Default : Нет
Forced : Нет

Аудио #3
Идентификатор : 4
Формат : AC-3
Формат/Информация : Audio Coding 3
Расширение режима : CM (complete main)
Параметр Endianness формата : Big
Идентификатор кодека : A_AC3
Продолжительность : 23 м.
Вид битрейта : Постоянный
Битрейт : 192 Кбит/сек
Каналы : 2 канала
Расположение каналов : Front: L R
Частота : 48,0 КГц
Метод сжатия : С потерями
Размер потока : 32,5 Мбайт (7%)
Заголовок : Dancel & RJ Pandora & Лизавета
Язык : Russian
Default : Нет
Forced : Нет

Аудио #4
Идентификатор : 5
Формат : AAC
Формат/Информация : Advanced Audio Codec
Профиль формата : LC
Идентификатор кодека : A_AAC
Продолжительность : 23 м.
Каналы : 2 канала
Расположение каналов : Front: L R
Частота : 48,0 КГц
Метод сжатия : С потерями
Язык : Japanese
Default : Нет
Forced : Нет

Текст #1
Идентификатор : 6
Формат : ASS
Идентификатор кодека : S_TEXT/ASS
Идентификатор кодека/Информация : Advanced Sub Station Alpha
Метод сжатия : Без потерь
Заголовок : AOS Team
Язык : Russian
Default : Да
Forced : Нет

Текст #2
Идентификатор : 7
Формат : ASS
Идентификатор кодека : S_TEXT/ASS
Идентификатор кодека/Информация : Advanced Sub Station Alpha
Метод сжатия : Без потерь
Заголовок : Jenia aka Zub
Язык : Russian
Default : Нет
Forced : Нет

Общее
Уникальный идентификатор : 180160426201918380477564130670364368620 (0x8789A2CE60DD6215B5C6C1906ECC9EEC)
Полное имя : H:АнимеKono_ Subarashii_Sekai_ni_Shukufuku_o!_ +OVA [BDRip 720p]Kono Subarashii Sekai ni Shukufuku o! 2 [BDRip] [720p]Kono Subarashii Sekai ni Shukufuku o! 2 - 09 (BDRip 720p).mkv
Формат : Matroska
Версия формата : Version 2
Размер файла : 374 Мбайт
Продолжительность : 23 м.
Общий поток : 2204 Кбит/сек
Дата кодирования : UTC 2018-05-28 02:41:59
Программа кодирования : mkvmerge v5.7.0 ('The Whirlwind') built on Jul 29 2012 15:12:35
Библиотека кодирования : libebml v1.2.3 + libmatroska v1.3.0

Видео
Идентификатор : 1
Формат : AVC
Формат/Информация : Advanced Video Codec
Профиль формата : High@L4
Параметр CABAC формата : Да
Параметр ReFrames формата : 6 кадров
Идентификатор кодека : V_MPEG4/ISO/AVC
Продолжительность : 23 м.
Ширина : 1280 пикселей
Высота : 720 пикселей
Соотношение сторон : 16:9
Режим частоты кадров : Постоянный
Частота кадров : 23,976 кадра/сек
Цветовое пространство : YUV
Субдискретизация насыщенности : 4:2:0
Битовая глубина : 8 бит
Тип развёртки : Прогрессивная
Default : Да
Forced : Нет

Аудио #1
Идентификатор : 2
Формат : AC-3
Формат/Информация : Audio Coding 3
Расширение режима : CM (complete main)
Параметр Endianness формата : Big
Идентификатор кодека : A_AC3
Продолжительность : 23 м.
Вид битрейта : Постоянный
Битрейт : 192 Кбит/сек
Каналы : 2 канала
Расположение каналов : Front: L R
Частота : 48,0 КГц
Метод сжатия : С потерями
Размер потока : 32,6 Мбайт (9%)
Заголовок : Ancord, Trina_D
Язык : Russian
Default : Нет
Forced : Да

Аудио #2
Идентификатор : 3
Формат : AC-3
Формат/Информация : Audio Coding 3
Расширение режима : CM (complete main)
Параметр Endianness формата : Big
Идентификатор кодека : A_AC3
Продолжительность : 23 м.
Вид битрейта : Постоянный
Битрейт : 192 Кбит/сек
Каналы : 2 канала
Расположение каналов : Front: L R
Частота : 48,0 КГц
Метод сжатия : С потерями
Размер потока : 32,6 Мбайт (9%)
Заголовок : Kari & Lali & Sharon & Cleo-chan
Язык : Russian
Default : Нет
Forced : Нет

Аудио #3
Идентификатор : 4
Формат : AC-3
Формат/Информация : Audio Coding 3
Расширение режима : CM (complete main)
Параметр Endianness формата : Big
Идентификатор кодека : A_AC3
Продолжительность : 23 м.
Вид битрейта : Постоянный
Битрейт : 192 Кбит/сек
Каналы : 2 канала
Расположение каналов : Front: L R
Частота : 48,0 КГц
Метод сжатия : С потерями
Размер потока : 32,6 Мбайт (9%)
Заголовок : Dancel & RJ Pandora & Лизавета
Язык : Russian
Default : Нет
Forced : Нет

Аудио #4
Идентификатор : 5
Формат : AAC
Формат/Информация : Advanced Audio Codec
Профиль формата : LC
Идентификатор кодека : A_AAC
Продолжительность : 23 м.
Каналы : 2 канала
Расположение каналов : Front: L R
Частота : 48,0 КГц
Метод сжатия : С потерями
Язык : Japanese
Default : Нет
Forced : Нет

Текст #1
Идентификатор : 6
Формат : ASS
Идентификатор кодека : S_TEXT/ASS
Идентификатор кодека/Информация : Advanced Sub Station Alpha
Метод сжатия : Без потерь
Заголовок : AOS Team
Язык : Russian
Default : Да
Forced : Нет

Текст #2
Идентификатор : 7
Формат : ASS
Идентификатор кодека : S_TEXT/ASS
Идентификатор кодека/Информация : Advanced Sub Station Alpha
Метод сжатия : Без потерь
Заголовок : Jenia aka Zub
Язык : Russian
Default : Нет
Forced : Нет

Общее
Уникальный идентификатор : 201778652452370554092891109856227040816 (0x97CD27A6D87C5AD38064AE00A4731E30)
Полное имя : H:АнимеKono_ Subarashii_Sekai_ni_Shukufuku_o!_ +OVA [BDRip 720p]Kono Subarashii Sekai ni Shukufuku o! 2 [BDRip] [720p]Kono Subarashii Sekai ni Shukufuku o! 2 - 10 (BDRip 720p).mkv
Формат : Matroska
Версия формата : Version 2
Размер файла : 537 Мбайт
Продолжительность : 25 м.
Общий поток : 2982 Кбит/сек
Дата кодирования : UTC 2018-05-28 02:43:59
Программа кодирования : mkvmerge v5.7.0 ('The Whirlwind') built on Jul 29 2012 15:12:35
Библиотека кодирования : libebml v1.2.3 + libmatroska v1.3.0

Видео
Идентификатор : 1
Формат : AVC
Формат/Информация : Advanced Video Codec
Профиль формата : High@L4
Параметр CABAC формата : Да
Параметр ReFrames формата : 6 кадров
Идентификатор кодека : V_MPEG4/ISO/AVC
Продолжительность : 25 м.
Ширина : 1280 пикселей
Высота : 720 пикселей
Соотношение сторон : 16:9
Режим частоты кадров : Постоянный
Частота кадров : 23,976 кадра/сек
Цветовое пространство : YUV
Субдискретизация насыщенности : 4:2:0
Битовая глубина : 8 бит
Тип развёртки : Прогрессивная
Default : Да
Forced : Нет

Аудио #1
Идентификатор : 2
Формат : AC-3
Формат/Информация : Audio Coding 3
Расширение режима : CM (complete main)
Параметр Endianness формата : Big
Идентификатор кодека : A_AC3
Продолжительность : 25 м.
Вид битрейта : Постоянный
Битрейт : 192 Кбит/сек
Каналы : 2 канала
Расположение каналов : Front: L R
Частота : 48,0 КГц
Метод сжатия : С потерями
Размер потока : 34,6 Мбайт (6%)
Заголовок : Ancord, Trina_D
Язык : Russian
Default : Нет
Forced : Да

Аудио #2
Идентификатор : 3
Формат : AC-3
Формат/Информация : Audio Coding 3
Расширение режима : CM (complete main)
Параметр Endianness формата : Big
Идентификатор кодека : A_AC3
Продолжительность : 25 м.
Вид битрейта : Постоянный
Битрейт : 192 Кбит/сек
Каналы : 2 канала
Расположение каналов : Front: L R
Частота : 48,0 КГц
Метод сжатия : С потерями
Размер потока : 34,6 Мбайт (6%)
Заголовок : Kari & Lali & Sharon & Cleo-chan
Язык : Russian
Default : Нет
Forced : Нет

Аудио #3
Идентификатор : 4
Формат : AC-3
Формат/Информация : Audio Coding 3
Расширение режима : CM (complete main)
Параметр Endianness формата : Big
Идентификатор кодека : A_AC3
Продолжительность : 25 м.
Вид битрейта : Постоянный
Битрейт : 192 Кбит/сек
Каналы : 2 канала
Расположение каналов : Front: L R
Частота : 48,0 КГц
Метод сжатия : С потерями
Размер потока : 34,6 Мбайт (6%)
Заголовок : Dancel & RJ Pandora & Лизавета
Язык : Russian
Default : Нет
Forced : Нет

Аудио #4
Идентификатор : 5
Формат : AAC
Формат/Информация : Advanced Audio Codec
Профиль формата : LC
Идентификатор кодека : A_AAC
Продолжительность : 25 м.
Каналы : 2 канала
Расположение каналов : Front: L R
Частота : 48,0 КГц
Метод сжатия : С потерями
Язык : Japanese
Default : Нет
Forced : Нет

Текст #1
Идентификатор : 6
Формат : ASS
Идентификатор кодека : S_TEXT/ASS
Идентификатор кодека/Информация : Advanced Sub Station Alpha
Метод сжатия : Без потерь
Заголовок : AOS Team
Язык : Russian
Default : Да
Forced : Нет

Текст #2
Идентификатор : 7
Формат : ASS
Идентификатор кодека : S_TEXT/ASS
Идентификатор кодека/Информация : Advanced Sub Station Alpha
Метод сжатия : Без потерь
Заголовок : Jenia aka Zub
Язык : Russian
Default : Нет
Forced : Нет

Общее
Уникальный идентификатор : 238034505940453455714688619583674322016 (0xB313C73D47C5982B94ECAF0A76910C60)
Полное имя : H:АнимеKono_ Subarashii_Sekai_ni_Shukufuku_o!_ +OVA [BDRip 720p]Kono Subarashii Sekai ni Shukufuku o! 2 [BDRip] [720p]Kono Subarashii Sekai ni Shukufuku o! 2 - OVA_02 (BDRip 720p).mkv
Формат : Matroska
Версия формата : Version 2
Размер файла : 490 Мбайт
Продолжительность : 28 м.
Общий поток : 2374 Кбит/сек
Дата кодирования : UTC 2018-05-28 03:12:36
Программа кодирования : mkvmerge v5.7.0 ('The Whirlwind') built on Jul 29 2012 15:12:35
Библиотека кодирования : libebml v1.2.3 + libmatroska v1.3.0

Видео
Идентификатор : 1
Формат : AVC
Формат/Информация : Advanced Video Codec
Профиль формата : High@L4
Параметр CABAC формата : Да
Параметр ReFrames формата : 6 кадров
Идентификатор кодека : V_MPEG4/ISO/AVC
Продолжительность : 28 м.
Ширина : 1280 пикселей
Высота : 720 пикселей
Соотношение сторон : 16:9
Режим частоты кадров : Постоянный
Частота кадров : 23,976 кадра/сек
Цветовое пространство : YUV
Субдискретизация насыщенности : 4:2:0
Битовая глубина : 8 бит
Тип развёртки : Прогрессивная
Default : Да
Forced : Нет

Аудио #1
Идентификатор : 2
Формат : AC-3
Формат/Информация : Audio Coding 3
Расширение режима : CM (complete main)
Параметр Endianness формата : Big
Идентификатор кодека : A_AC3
Продолжительность : 28 м.
Вид битрейта : Постоянный
Битрейт : 192 Кбит/сек
Каналы : 2 канала
Расположение каналов : Front: L R
Частота : 48,0 КГц
Метод сжатия : С потерями
Размер потока : 39,7 Мбайт (8%)
Заголовок : Ancord, Trina_D
Язык : Russian
Default : Да
Forced : Да

Аудио #2
Идентификатор : 3
Формат : AC-3
Формат/Информация : Audio Coding 3
Расширение режима : CM (complete main)
Параметр Endianness формата : Big
Идентификатор кодека : A_AC3
Продолжительность : 28 м.
Вид битрейта : Постоянный
Битрейт : 192 Кбит/сек
Каналы : 2 канала
Расположение каналов : Front: L R
Частота : 48,0 КГц
Метод сжатия : С потерями
Размер потока : 39,7 Мбайт (8%)
Заголовок : Sakura & Ban
Язык : Russian
Default : Нет
Forced : Нет

Аудио #3
Идентификатор : 4
Формат : AC-3
Формат/Информация : Audio Coding 3
Расширение режима : CM (complete main)
Параметр Endianness формата : Big
Идентификатор кодека : A_AC3
Продолжительность : 28 м.
Вид битрейта : Постоянный
Битрейт : 192 Кбит/сек
Каналы : 2 канала
Расположение каналов : Front: L R
Частота : 48,0 КГц
Метод сжатия : С потерями
Размер потока : 39,7 Мбайт (8%)
Заголовок : Sharon & Kari & Cleo-chan & Itashi
Язык : Russian
Default : Нет
Forced : Нет

Аудио #4
Идентификатор : 5
Формат : AC-3
Формат/Информация : Audio Coding 3
Расширение режима : CM (complete main)
Параметр Endianness формата : Big
Идентификатор кодека : A_AC3
Продолжительность : 28 м.
Вид битрейта : Постоянный
Битрейт : 192 Кбит/сек
Каналы : 2 канала
Расположение каналов : Front: L R
Частота : 48,0 КГц
Метод сжатия : С потерями
Размер потока : 39,7 Мбайт (8%)
Заголовок : Dancel & Лизавета & Pandora
Язык : Russian
Default : Нет
Forced : Нет

Аудио #5
Идентификатор : 6
Формат : AAC
Формат/Информация : Advanced Audio Codec
Профиль формата : LC
Идентификатор кодека : A_AAC
Продолжительность : 28 м.
Каналы : 2 канала
Расположение каналов : Front: L R
Частота : 48,0 КГц
Метод сжатия : С потерями
Язык : Japanese
Default : Нет
Forced : Нет

Текст #1
Идентификатор : 7
Формат : ASS
Идентификатор кодека : S_TEXT/ASS
Идентификатор кодека/Информация : Advanced Sub Station Alpha
Метод сжатия : Без потерь
Заголовок : Nesushiy & Ristretto
Язык : Russian
Default : Да
Forced : Нет

Текст #2
Идентификатор : 8
Формат : ASS
Идентификатор кодека : S_TEXT/ASS
Идентификатор кодека/Информация : Advanced Sub Station Alpha
Метод сжатия : Без потерь
Заголовок : Jenia aka Zub
Язык : Russian
Default : Нет
Forced : Нет
[/spoiler][spoiler="Список серий"]1 сезон
01. Само-Провозглашенная Богиня и Перерождение в Ином Мире! / This Self-Proclaimed Goddess and Reincarnation in Another World!
02. Взрыв и Её Чудачество! / An Explosion for This Chunibyo!
03. Трусики Сокровище в Моей Правой Руке! / A Panty Treasure in This Right Hand!
04. Магия Взрыва Для Грозного Врага! / Explosion Magic for This Formidable Enemy!
05. Цена Этому Проклятому Мечу! / A Price for This Cursed Sword!
06. Итог Этой Вечной Битве! / A Conclusion to This Worthless Fight!
07. Вторая Смерть В Сезон Заморозков! / A Second Death in This Freezing Season!
08. Взаимопомощь Нашей Команды На Случай Если Трудно Будет Пережить Зиму! / A Loving Hand for Our Party When We Can`t Make It Through Winter!
09. Божественная Благодать Этому Замечательному Магазину! / God`s Blessing on This Wonderful Shop!
10. Жертвенный Огонь Уготовленный Для Незваной Крепости! / Final Flame for This Over-the-Top Fortress!
2 сезон
01. Спасите меня от этой судебной несправедливости! / Give Me Deliverance from This Judicial Injustice!
02. Подруга для Алого Демона! / A Friend for This Crimson Demon Girl!
03. Мир для мастера этого лабиринта! / Peace for the Master of This Labyrinth!
04. Помолвка для этой благородной дочери! / A Betrothed for This Noble Daughter!
05. Рабство для этого лживого рыцаря! / Servitude for This Masked Knight!
06. Прощание с раздражающим миром живых! / Goodbye to This Irritating Living World!
07. Приглашение для болвана! / An Invitation for This Knucklehead!
08. Прогулка по этому жалкому городу! / Sightseeing in This Pitiful City!
09. Богиня испорченного города онсэнов! / A Goddess for This Corrupt Hot Springs Town!
10. Благословение Богини на этом замечательном празднике! / God`s Blessing on This Wonderful Party!.
[/spoiler][spoiler="Релиз"]Перевод: AOS Team - Jenia aka Zub - OVA AleX_MytH, batyrmastyr, Nachtwandler, Seiya Loveless, Атом, Матадор - OVA 2 Nesushiy & Ristretto
Сборка контейнера: Eugeo
[/spoiler] [spoiler="Скриншоты"]
[url=https://a.radikal.ru/a06/1805/b8/7d69440e4849.png][img]https://a.radikal.ru/a06/1805/b8/7d69440e4849t.jpg[/img][/url] [url=https://d.radikal.ru/d12/1805/fc/791828b198f1.png][img]https://d.radikal.ru/d12/1805/fc/791828b198f1t.jpg[/img][/url] [url=https://a.radikal.ru/a36/1805/80/6462204686e0.png][img]https://a.radikal.ru/a36/1805/80/6462204686e0t.jpg[/img][/url] [url=https://a.radikal.ru/a36/1805/7a/a875c40cf662.png][img]https://a.radikal.ru/a36/1805/7a/a875c40cf662t.jpg[/img][/url] [url=https://b.radikal.ru/b41/1805/d7/581fccf9e99b.png][img]https://b.radikal.ru/b41/1805/d7/581fccf9e99bt.jpg[/img][/url] [url=https://c.radikal.ru/c11/1805/0c/113367eea580.png][img]https://c.radikal.ru/c11/1805/0c/113367eea580t.jpg[/img][/url]
[/spoiler]



   Похожие торренты   Торрент   Размер 
В этой теме нет новых непрочитанных сообщений. Этот замечательный мир! / Kono Subarashii Sekai ni Shukufuku wo! [01-08 из 12] (2016) HDTVRip 720p | SHIZA Project

169 | 22

2.66 ГБ

В этой теме нет новых непрочитанных сообщений. Этот замечательный мир! / Kono Subarashii Sekai ni Shukufuku wo! [01-10 из 10] (2016) HDTVRip 720p | SHIZA Project

114 | 48

3.34 ГБ

В этой теме нет новых непрочитанных сообщений. Этот замечательный мир! / Kono Subarashii Sekai ni Shukufuku wo! [01-06 из 12] (2016) HDTVRip 720p | SHIZA Project

39 | 6

1.99 ГБ

В этой теме нет новых непрочитанных сообщений. Этот замечательный мир! ТВ-2 / Kono Subarashii Sekai ni Shukufuku wo! [02x01-03 из 12] (2017) HDTVRip 720p | SHIZA Project

14 | 23

3.03 ГБ

В этой теме нет новых непрочитанных сообщений. Этот замечательный мир! ТВ-2 / Kono Subarashii Sekai ni Shukufuku wo! [02x01-03 из 12] (2017) HDTVRip 720p | SHIZA Project

16 | 0

1.12 ГБ

В этой теме нет новых непрочитанных сообщений. Этот замечательный мир! ТВ-2 / Kono Subarashii Sekai ni Shukufuku wo! [02x01-03 из 12] (2017) HDTVRip 720p | SHIZA Project

0 | 2

2.31 ГБ

В этой теме нет новых непрочитанных сообщений. Этот замечательный мир! ТВ-2 / Kono Subarashii Sekai ni Shukufuku wo! [02x01-03 из 12] (2017) HDTVRip 720p | SHIZA Project

7 | 3

1.53 ГБ




Вы не можете начинать темы
Вы не можете отвечать на сообщения
Вы не можете редактировать свои сообщения
Вы не можете удалять свои сообщения
Вы не можете добавлять вложения

Перейти:  
 Вход
ppkBB3cker v.2 © 2008-2014 @ PPK
[ Time : 0.031s | 16 Queries | GZIP : Off ]

cron