img image001 image001 image001 image001 image001 image001 image001 image001 image001 image001 image001 image001 image001 image001 image001 image001

Planets Sun Sun Sun
Статистика раздачи
Автор: Снежана | Размер: 13.14 ГБ | Добавлен: 25 июн 2018
Раздают: 0    Качают: 0
Скачать торрент
Скачать торрент
Описание торрента

СообщениеДобавлено: 25 июн 2018 

Информация о фильме
Название: Хайди - девочка Альп
Оригинальное название: Alps no Shoujo Heidi
Год выхода: 1974
Жанр: драма, история, приключения
Режиссер: Исао Такахата

О фильме:
Девочка Хайди после смерти родителей попадает на воспитание к своей тёте Дет, которая заботилась о ней до пятилетнего возраста. Но сейчас тётя Дет нашла работу во Франкфурте и девочка начинает мешать ей обустраивать собственную жизнь. Тётя отвозит Хайди жить на Альпийские горы к дедушке, внешне суровому и сварливому, но в душе неплохому старику. Своей добротой, непосредственностью и открытостью к миру вокруг себя, Хайди растопила сердце деду, и он по-настоящему полюбил внучку. В своём новом доме Хайди учится любить горы, природу, дружить с животными и цветами, и, самое главное, согревать сердца всех людей вокруг. И это главное она проносит через свою жизнь, становясь старше.
Но всё это только самое начало того, через что пришлось пройти девочке. Через некоторое время ее снова забирают и отдают в богатый дом, где она должна быть компаньонкой больной девочки Клары, прикованной к инвалидной коляске.



Страна: Япония
Студия: Zuiyo Eizo (Zuiyo Enterprises)
Продолжительность: 10 x ~00:25:50
Перевод: авторский одноголосый (Юрий Сербин)

Файл
Кодек: x264
Качество: BDRip 720p
Видео: 958x720, ~6000kb/s, 23.976fps
Звук:
Dolby AC3 48000Hz stereo 640kbps AVO Юрий Сербин [rus]
Dolby AC3 48000Hz stereo 640kbps Original [jpn]
Субтитры: trisem [rus] (subrip)

General
Unique ID : 130062448614598871086279219201267730295 (0x61D91DCF30A29472098D0A9B8E000777)
Complete name : F:MultsAnimeHeidi.A.Girl.of.the.Alps.1974.720pHeidi.A.Girl.of.the.Alps.1974.E01.720p.mkv
Format : Matroska
Format version : Version 4 / Version 2
File size : 1.31 GiB
Duration : 25 min 49 s
Overall bit rate : 7 286 kb/s
Encoded date : UTC 2018-05-28 14:56:46
Writing application : mkvmerge v23.0.0 ('The Bride Said No') 64-bit
Writing library : libebml v1.3.6 + libmatroska v1.4.9

Video
ID : 1
Format : AVC
Format/Info : Advanced Video Codec
Format profile : High@L3.1
Format settings : CABAC / 6 Ref Frames
Format settings, CABAC : Yes
Format settings, ReFrames : 6 frames
Codec ID : V_MPEG4/ISO/AVC
Duration : 25 min 49 s
Bit rate : 6 008 kb/s
Width : 958 pixels
Height : 720 pixels
Display aspect ratio : 4:3
Frame rate mode : Constant
Frame rate : 23.976 (24000/1001) FPS
Color space : YUV
Chroma subsampling : 4:2:0
Bit depth : 8 bits
Scan type : Progressive
Bits/(Pixel*Frame) : 0.363
Stream size : 1.06 GiB (80%)
Writing library : x264 core 155 r2901M 7d0ff22
Encoding settings : cabac=1 / ref=6 / deblock=1:-2:-2 / analyse=0x3:0x133 / me=umh / subme=9 / psy=1 / psy_rd=1.00:0.00 / mixed_ref=1 / me_range=32 / chroma_me=1 / trellis=2 / 8x8dct=1 / cqm=0 / deadzone=21,11 / fast_pskip=0 / chroma_qp_offset=-2 / threads=5 / lookahead_threads=1 / sliced_threads=0 / nr=0 / decimate=1 / interlaced=0 / bluray_compat=0 / constrained_intra=0 / bframes=16 / b_pyramid=2 / b_adapt=2 / b_bias=0 / direct=3 / weightb=1 / open_gop=0 / weightp=2 / keyint=240 / keyint_min=24 / scenecut=40 / intra_refresh=0 / rc=2pass / mbtree=0 / bitrate=6008 / ratetol=1.0 / qcomp=0.60 / qpmin=3 / qpmax=69 / qpstep=4 / cplxblur=20.0 / qblur=0.5 / ip_ratio=1.40 / pb_ratio=1.30 / aq=1:1.00
Default : Yes
Forced : No

Audio #1
ID : 2
Format : AC-3
Format/Info : Audio Coding 3
Codec ID : A_AC3
Duration : 25 min 49 s
Bit rate mode : Constant
Bit rate : 640 kb/s
Channel(s) : 2 channels
Channel positions : Front: L R
Sampling rate : 48.0 kHz
Frame rate : 31.250 FPS (1536 SPF)
Bit depth : 16 bits
Compression mode : Lossy
Stream size : 118 MiB (9%)
Title : AVO Serbin
Language : Russian
Service kind : Complete Main
Default : Yes
Forced : No

Audio #2
ID : 3
Format : AC-3
Format/Info : Audio Coding 3
Codec ID : A_AC3
Duration : 25 min 49 s
Bit rate mode : Constant
Bit rate : 640 kb/s
Channel(s) : 2 channels
Channel positions : Front: L R
Sampling rate : 48.0 kHz
Frame rate : 31.250 FPS (1536 SPF)
Bit depth : 16 bits
Compression mode : Lossy
Stream size : 118 MiB (9%)
Title : Original
Language : Japanese
Service kind : Complete Main
Default : No
Forced : No

Text
ID : 4
Format : UTF-8
Codec ID : S_TEXT/UTF8
Codec ID/Info : UTF-8 Plain Text
Title : Russian (trisem)
Language : Russian
Default : No
Forced : No





   Похожие торренты   Торрент   Размер 
В этой теме нет новых непрочитанных сообщений. Хайди / Heidi (2015) WEBRip | Sub

13 | 23

1.46 ГБ

В этой теме нет новых непрочитанных сообщений. Хайди / Heidi (1995) DVDRip

107 | 7

1.37 ГБ

В этой теме нет новых непрочитанных сообщений. Принц Альп / Prince of the Alps (2007) HDTV (1080i) от Generalfilm

14 | 6

5.07 ГБ

В этой теме нет новых непрочитанных сообщений. Gekijouban Mahou Shoujo Madoka Magica / Девочка-волшебница Мадока (Фильмы) [Movie] [1 из 3] (2013) BDRip 720p | AniFilm MVO

151 | 5

1.25 ГБ

В этой теме нет новых непрочитанных сообщений. Gekijouban Mahou Shoujo Madoka Magica / Девочка-волшебница Мадока (Фильмы) [Movie] [2 из 3] (2013) BDRip 720p | AniFilm MVO

33 | 11

1.32 ГБ

В этой теме нет новых непрочитанных сообщений. Девочка, покорившая время / Toki Wo Kakeru Shoujo (1983) BDRip-AVC от MediaClub | L1

20 | 5

2.15 ГБ

В этой теме нет новых непрочитанных сообщений. Адская девочка: Разговоры в сумерках / Jigoku Shoujo: Yoi no Togi [01 из 12] (2017) HDTVRip 720p | AniFilm

9 | 0

1005.23 МБ




Вы не можете начинать темы
Вы не можете отвечать на сообщения
Вы не можете редактировать свои сообщения
Вы не можете удалять свои сообщения
Вы не можете добавлять вложения

Перейти:  
 Вход
ppkBB3cker v.2 © 2008-2014 @ PPK
[ Time : 0.397s | 16 Queries | GZIP : Off ]

cron