img image001 image001 image001 image001 image001 image001 image001 image001 image001 image001 image001 image001 image001 image001 image001 image001

Planets Sun Sun Sun
Статистика раздачи
Автор: Снежана | Размер: 8.58 ГБ | Добавлен: 25 июн 2018
Раздают: 28    Качают: 20
Скачать торрент
Скачать торрент
Описание торрента

СообщениеДобавлено: 25 июн 2018 

Информация о фильме
Название: Любимый во Франксе
Оригинальное название: Darling in the FranXX
Год выхода: 2018
Жанр: приключения, фантастика, меха
Режиссер: Нисигори Ацуси
Художник: Хираянаги Сатоси, Сиодзава Ёсинори
В ролях: Уэмура Юто, Томацу Харука, Итиносэ Кана, Умэхара Юйтиро, Ямасита Нанами, Тамура Муцуми, Хаями Саори, Гото Хироки, Исигами Сидзука, Итикава Аой, Иноуэ Марина, Кониси Кацуюки, Хориути Кэнъю
О фильме:
Далекое будущее. Земля в руинах, и на остатки человечества наводят ужас таинственные гигантские формы жизни, известные как кёрю — «ревущие драконы». Чтобы противостоять им, люди создали передвижное фортификационное сооружение, названное Плантацией, где растут и обучаются юные пилоты роботов Франкс.
Единственная цель, ради которой живут эти дети, — уничтожение кёрю после прохождения специальной подготовки. Но чтобы управлять роботом — необходимо двое: мужчина и женщина, «тычинка» и «пестик». И если один не справляется, статуса пилота лишаются оба, что и для того и для другого значит ни много ни мало утратить смысл существования.
Хиро считали одаренным. До тех пор, пока он не провалился на экзамене вместе со своей напарницей. Птица, которая никогда не взлетит, — так чувствовал себя мальчик с того времени и даже не догадывался, что скоро встретит человека с похожей судьбой...
«Убийца напарников», рогатая девчонка, в жилах которой течет кровь кёрю. «Станешь ли ты моим милым?» — спросила она не то шутки ради, не то — всерьез. И для Хиро вдруг снова нашлось место в мире...


World Art | MAL

Страна: Япония
Студия: Trigger & A-1 Pictures Inc.
Продолжительность: 00:24:00
Язык: Русский, Японский
Перевод: Любительский (многоголосый, закадровый)

Файл
Качество: WEBRip
Формат: MKV
Кодек: H.264
Аудио кодек: AAC
Видео: 1280x720, 23.976 fps, 1800 kbps
Аудио RUS: 48.0 kHz, AAC, 2 ch, 192 kbps - KANSAI (01-18)
Аудио RUS: 48.0 kHz, AAC, 2 ch, 192 kbps - AniDub (01-18)
Аудио RUS: 48.0 kHz, AAC, 2 ch, 192 kbps - SHIZA Project (01-18)
Аудио RUS: 48.0 kHz, AAC, 2 ch, 192 kbps - AniLibria
Аудио JAP: 44.1 kHz, AAC, 2 ch, 128 kbps
Субтитры: русские (встроенные надписи, ASS)
Субтитры: русские (встроенные полный перевод, ASS) - Crunchyroll
Субтитры: русские (встроенные полный перевод, ASS) - SovetRomantica

Релиз от:
Озвучивание: Oni, Jade, Ket
Перевод: Coronzona
Тайминг и работа со звуком: CaliBri

Релиз от:
Озвучивание: Dancel, nDrOiDze, Viki, OkanaTsoy
Перевод: MedusaSub
Тайминг и работа со звуком: PunksPlay

Релиз от:
Озвучивание: Anzen, Cleo-chan, HectoR, Hekomi, MyAska, Sharon
Перевод: ElViS
Тайминг и работа со звуком: Z3nC0rZ

01. Один и одинокий
02. Что значит связь
03. Сражающаяся кукла
04. Взмахи крыльев
05. Твои шипы и мой символ
06. Милый во Франксе
07. Мораторий падающей звезды
08. Мальчики и девочки
09. Треугольная бомба
10. Вечный город
11. Обмен партнёрами
12. Сад, где всё началось
13. Принц и девушка-демон
14. Наказание и Признание
15. Двуглавая птица
16. Дни нашей жизни
17. Эдем
18. Когда цветёт Сакура
19. Бесчеловечность
20. Новый мир
General
Format : Matroska
Format version : Version 4 / Version 2
File size : 447 MiB
Duration : 24 min
Overall bit rate : 2 599 kb/s
Encoded date : UTC 2018-05-06 14:05:18
Writing application : mkvmerge v8.3.0 ('Over the Horizon') 64bit
Writing library : libebml v1.3.1 + libmatroska v1.4.2

Video
ID : 1
Format : AVC
Format/Info : Advanced Video Codec
Format profile : High@L4
Format settings, CABAC : Yes
Format settings, ReFrames : 6 frames
Codec ID : V_MPEG4/ISO/AVC
Duration : 24 min
Bit rate : 1 776 kb/s
Width : 1 280 pixels
Height : 720 pixels
Display aspect ratio : 16:9
Frame rate mode : Variable
Frame rate : 23.976 (23976/1000) FPS
Color space : YUV
Chroma subsampling : 4:2:0
Bit depth : 8 bits
Scan type : Progressive
Bits/(Pixel*Frame) : 0.080
Stream size : 304 MiB (68%)
Writing library : x264 core 120 r2120 0c7dab9
Encoding settings : cabac=1 / ref=6 / deblock=1:1:1 / analyse=0x3:0x113 / me=umh / subme=8 / psy=1 / psy_rd=0.40:0.00 / mixed_ref=1 / me_range=16 / chroma_me=1 / trellis=1 / 8x8dct=1 / cqm=0 / deadzone=21,11 / fast_pskip=1 / chroma_qp_offset=-2 / threads=4 / sliced_threads=0 / nr=0 / decimate=1 / interlaced=0 / bluray_compat=0 / constrained_intra=0 / bframes=3 / b_pyramid=2 / b_adapt=2 / b_bias=0 / direct=3 / weightb=1 / open_gop=0 / weightp=2 / keyint=250 / keyint_min=23 / scenecut=40 / intra_refresh=0 / rc_lookahead=50 / rc=2pass / mbtree=1 / bitrate=1776 / ratetol=1.0 / qcomp=0.60 / qpmin=0 / qpmax=69 / qpstep=4 / cplxblur=20.0 / qblur=0.5 / vbv_maxrate=3552 / vbv_bufsize=8880 / nal_hrd=none / ip_ratio=1.40 / aq=1:0.60
Default : Yes
Forced : No

Audio #1
ID : 2
Format : AAC
Format/Info : Advanced Audio Codec
Format profile : LC
Codec ID : A_AAC
Duration : 24 min
Bit rate : 192 kb/s
Channel(s) : 2 channels
Channel positions : Front: L R
Sampling rate : 48.0 kHz
Frame rate : 46.875 FPS (1024 spf)
Compression mode : Lossy
Stream size : 32.5 MiB (7%)
Title : KANSAI
Language : Russian
Default : Yes
Forced : No

Audio #2
ID : 3
Format : AAC
Format/Info : Advanced Audio Codec
Format profile : LC
Codec ID : A_AAC
Duration : 24 min
Bit rate : 128 kb/s
Channel(s) : 2 channels
Channel positions : Front: L R
Sampling rate : 48.0 kHz
Frame rate : 46.875 FPS (1024 spf)
Compression mode : Lossy
Stream size : 22.0 MiB (5%)
Title : AniDub
Language : Russian
Default : No
Forced : No

Audio #3
ID : 4
Format : AAC
Format/Info : Advanced Audio Codec
Format profile : LC
Codec ID : A_AAC
Duration : 24 min
Bit rate : 192 kb/s
Channel(s) : 2 channels
Channel positions : Front: L R
Sampling rate : 48.0 kHz
Frame rate : 46.875 FPS (1024 spf)
Compression mode : Lossy
Delay relative to video : 9 ms
Stream size : 33.0 MiB (7%)
Title : SHIZA Project
Language : Russian
Default : No
Forced : No

Audio #4
ID : 5
Format : AAC
Format/Info : Advanced Audio Codec
Format profile : LC
Codec ID : A_AAC
Duration : 24 min
Bit rate : 192 kb/s
Channel(s) : 2 channels
Channel positions : Front: L R
Sampling rate : 48.0 kHz
Frame rate : 46.875 FPS (1024 spf)
Compression mode : Lossy
Stream size : 32.5 MiB (7%)
Title : AniLibria
Language : Russian
Default : No
Forced : No

Audio #5
ID : 6
Format : AAC
Format/Info : Advanced Audio Codec
Format profile : LC
Codec ID : A_AAC
Duration : 24 min
Bit rate : 128 kb/s
Channel(s) : 2 channels
Channel positions : Front: L R
Sampling rate : 44.1 kHz
Frame rate : 43.066 FPS (1024 spf)
Compression mode : Lossy
Stream size : 22.0 MiB (5%)
Title : Original
Language : Japanese
Default : No
Forced : No

Text #1
ID : 7
Format : ASS
Codec ID : S_TEXT/ASS
Codec ID/Info : Advanced Sub Station Alpha
Duration : 22 min
Bit rate : 8 b/s
Count of elements : 14
Compression mode : Lossless
Stream size : 1.47 KiB (0%)
Title : Надписи
Language : Russian
Default : Yes
Forced : No

Text #2
ID : 8
Format : ASS
Codec ID : S_TEXT/ASS
Codec ID/Info : Advanced Sub Station Alpha
Duration : 23 min
Bit rate : 161 b/s
Count of elements : 355
Compression mode : Lossless
Stream size : 28.2 KiB (0%)
Title : Полные субтитры - Crunchyroll
Language : Russian
Default : No
Forced : No

Text #3
ID : 9
Format : ASS
Codec ID : S_TEXT/ASS
Codec ID/Info : Advanced Sub Station Alpha
Duration : 23 min
Bit rate : 144 b/s
Count of elements : 374
Compression mode : Lossless
Stream size : 25.2 KiB (0%)
Title : Полные субтитры - SovetRomantica
Language : Russian
Default : No
Forced : No
Когда раздача ведётся путём добавления новых серий, при каждом добавлении создётся новый торрент. Чтобы начать докачку новой серии, пользователям необходимо сделать следующее:
(1) остановить скачивание,
(2) удалить старый торрент у себя из клиента (старые серии удалять не надо),
(3) скачать новый торрент и запустить его у себя в клиенте вместо старого, при этом указать клиенту путь в старую папку, куда и должно происходить скачивание новых серий.
Ваш клиент при этом должен произвести хеширование (проверку) старой папки (если не производит сам - помогите ему сделать это), и будет докачивать только те серии, которых у вас ещё нет. Старые серии при этом не удаляются, а продолжают раздаваться!
Eсли вы уже удалили старые серии, то предотвратить повторную закачку старых серий можно, отжав галочку в соответсвующих местах при запуске нового торрента. По возможности, желательно не удалять старые серии как можно дольше, чтобы релизёр не столько продолжал раздавать старые серии, а смог сконцентрироваться на новых.



   Похожие торренты   Торрент   Размер 
В этой теме нет новых непрочитанных сообщений. Любимый во Франксе / Darling in the FranXX [01 из 24] (2018) WEBRip 720p | AniFilm

22 | 1

1.21 ГБ

В этой теме нет новых непрочитанных сообщений. Любимый во Франксе / Darling in the FranXX [01 из 24] (2018) WEBRip 720p | AniFilm

21 | 1

575.31 МБ

В этой теме нет новых непрочитанных сообщений. Любимый во Франксе / Darling in the Franxx [01-19 из 24] (2018) HDTVRip 720p | SEKAI PROJECT

0 | 0

6.68 ГБ

В этой теме нет новых непрочитанных сообщений. Любимый во Франксе / Darling in the Franxx [01-16 из 24] (2018) HDTVRip 720p | SEKAI PROJECT

0 | 1

5.49 ГБ

В этой теме нет новых непрочитанных сообщений. Любимый во Франксе / Darling in the Franxx [01-18 из 24] (2018) HDTVRip 720p | SEKAI PROJECT

0 | 0

6.38 ГБ

В этой теме нет новых непрочитанных сообщений. Милый во Франкcе / Darling in the FranXX [01-02 из 24] (2018) HDTVRip 720p | SEKAI PROJECT

0 | 0

697.72 МБ

В этой теме нет новых непрочитанных сообщений. Милый во Франкcе / Darling in the FranXX [01 из 24] (2018) HDTVRip 720p | SEKAI PROJECT

0 | 0

351.25 МБ




Вы не можете начинать темы
Вы не можете отвечать на сообщения
Вы не можете редактировать свои сообщения
Вы не можете удалять свои сообщения
Вы не можете добавлять вложения

Перейти:  
 Вход
ppkBB3cker v.2 © 2008-2014 @ PPK
[ Time : 0.031s | 15 Queries | GZIP : Off ]

cron