img image001 image001 image001 image001 image001 image001 image001 image001 image001 image001 image001 image001 image001 image001 image001 image001

Planets Sun Sun Sun
Статистика раздачи
Автор: Снежана | Размер: 63.14 ГБ | Добавлен: 25 июн 2018
Раздают: 5    Качают: 1
Скачать торрент
Скачать торрент
Описание торрента

СообщениеДобавлено: 25 июн 2018 

Информация о фильме
Название: Маленькая принцесса Сара
Оригинальное название: Shoukoujo Sara
Год выхода: 1985
Жанр: повседневность, история, драма
Режиссер: Курокава Фумио
В ролях: Симамото Суми, Сакамото Тика, Наканиси Таэко, Ямада Эйко, Судзуки Миэ

О мультсериале:
Действие экранизации происходит в конце XIX века в Лондоне, куда капитан Кру привез свою единственную дочь Сару, чтобы оставить ее в пансионе. Девочка тяжело переносит разлуку с отцом, но ее ум, самостоятельность, чуткость и тактичность к окружающим располагают к ней новых друзей. Вернувшись в Индию, старый Кру умирает, не оставив дочери ни копейки...
Мультсериал входит в тематическую группу World Masterpiece Theater и снято по мотивам известного романа «Маленькая принцесса» (англ. «A Little Princess») американской писательницы конца XIX века Фрэнсис Ходжсон Бёрнетт.


Страна: Япония
Студия: Nippon Animation
Продолжительность: 46 ~00:25:34
Перевод: Любительский одноголосый (Андрей)

Файл
Кодек: H.264 AVC
Качество: BDRip 1080p
Формат видео: MKV
Видео: 1920х1080, 7500 Кбит/сек, 23,976 кадра/сек
Звук: AAC, 44100 Гц, 192 Кбит/сек, 2 канала
Субтитры: русские (ASS, неполные - частично для 11 серий, в контейнере), перевод и редактура: Уникум

Семпл

01. Пансион мисс Минчин для юных леди
02. Кукла Эмили
03. Первый урок
04. Задушевная подруга Эрменгарда
05. Плакса Лотти
06. Покрытая золой Бекки
07. Староста
08. Добрая госпожа
09. Письмо из Индии
10. Два подарка
11. День рождения принцессы
12. Тёмная комната на чердаке
13. Тяжёлый рабочий день
14. Ночной гость
15. Питер - дитя улиц
16. Приключения Лотти
17. Друзья маленького семейства Меля
18. Грустный праздник майского дерева
19. Письма из Индии
20. Тайна воспитанницы из особой комнаты
21. Горькие слёзы
22. Праздник на чердаке
23. Дружелюбный пекарь
24. Судьба Эмили
25. Золушка на один день
26. Маленький учитель
27. Мистер Дюфарж возвращается на родину
28. Летние каникулы
29. Бекки возвращается домой
30. Индийский джентльмен
31. Чудовище на чердаке
32. Секрет за стеной
33. Новый семестр
34. Шторм
35. На грани смерти
36. Начало чудес
37. На чердаке
38. Чудеса заканчиваются
39. Холодной ночью в конюшне
40. Слёзы мисс Амелии
41. Праздник осени
42. На улице
43. Замечательный подарок
44. Открытие!
45. Сожаления мисс Минчин
46. Пока мы не встретимся снова
Вообще-то, весь сериал озвучен Андреем, однако в сериях: 29, 33, 36, 38, 39, 40, 41, 42, 43, 45 и 46 - присутствует (к счастью, лишь в некоторых сценах) одна только оригинальная озвучка, поэтому Уникум при помощи субтитров осуществил перевод указанных эпизодов на русский язык.
Общее
Уникальный идентификатор : 269198834412695296120669993152637254909 (0xCA85CF4330165C7042C13A0ECFC33CFD)
Полное имя : Маленькая принцесса Сара. Серия 1. Пансион мисс Минчин для юных леди.mkv
Формат : Matroska
Версия формата : Version 4 / Version 2
Размер файла : 1,37 Гбайт
Продолжительность : 25 м. 34 с.
Режим общего битрейта : Переменный
Общий поток : 7688 Кбит/сек
Дата кодирования : UTC 2018-04-12 05:42:58
Программа кодирования : mkvmerge v21.0.0 ('Tardigrades Will Inherit The Earth') 64-bit
Библиотека кодирования : libebml v1.3.5 + libmatroska v1.4.8

Видео
Идентификатор : 1
Формат : AVC
Формат/Информация : Advanced Video Codec
Профиль формата : Main@L4
Настройки формата : CABAC / 3 Ref Frames
Параметр CABAC формата : Да
Параметр RefFrames формата : 3 кадра
Идентификатор кодека : V_MPEG4/ISO/AVC
Продолжительность : 25 м. 33 с.
Вид битрейта : Переменный
Битрейт : 7500 Кбит/сек
Максимальный битрейт : 11,2 Мбит/сек
Ширина : 1920 пикселей
Высота : 1080 пикселей
Соотношение сторон : 16:9
Режим частоты кадров : Постоянный
Частота кадров : 23,976 (24000/1001) кадра/сек
Цветовое пространство : YUV
Субдискретизация насыщенности : 4:2:0
Битовая глубина : 8 бит
Тип развёртки : Прогрессивная
Бит/(Пиксели*Кадры) : 0.151
Размер потока : 1,34 Гбайт (97%)
Библиотека кодирования : x264 core 118
Настройки программы : cabac=1 / ref=3 / deblock=1:0:0 / analyse=0x1:0x111 / me=umh / subme=10 / psy=1 / psy_rd=1.00:0.00 / mixed_ref=1 / me_range=24 / chroma_me=1 / trellis=2 / 8x8dct=0 / cqm=0 / deadzone=21,11 / fast_pskip=1 / chroma_qp_offset=-2 / threads=6 / sliced_threads=0 / nr=0 / decimate=1 / interlaced=0 / bluray_compat=0 / constrained_intra=0 / bframes=2 / b_pyramid=0 / b_adapt=2 / b_bias=0 / direct=3 / weightb=1 / open_gop=0 / weightp=2 / keyint=48 / keyint_min=25 / scenecut=0 / intra_refresh=0 / rc_lookahead=0 / rc=2pass / mbtree=1 / bitrate=7500 / ratetol=1.0 / qcomp=0.50 / qpmin=6 / qpmax=51 / qpstep=4 / cplxblur=20.0 / qblur=0.5 / vbv_maxrate=11250 / vbv_bufsize=15000 / nal_hrd=vbr / ip_ratio=1.40 / aq=1:1.00
Язык : Japanese
Default : Да
Forced : Нет

Аудио
Идентификатор : 2
Формат : AAC
Формат/Информация : Advanced Audio Codec
Профиль формата : LC
Идентификатор кодека : A_AAC-2
Продолжительность : 25 м. 34 с.
Битрейт : 192 Кбит/сек
Каналы : 2 канала
Расположение каналов : Front: L R
Частота : 44,1 КГц
Частота кадров : 43,066 кадра/сек (1024 SPF)
Метод сжатия : С потерями
Размер потока : 35,8 Мбайт (3%)
Заголовок : Андрей
Язык : Russian
Default : Да
Forced : Нет


Общее
Уникальный идентификатор : 198353180938672151834273985002850668794 (0x95396EDDE6645D0CFDF8BFB5E4DAD0FA)
Полное имя : Маленькая принцесса Сара. Серия 11. День рождения принцессы.mkv
Формат : Matroska
Версия формата : Version 4 / Version 2
Размер файла : 1,37 Гбайт
Продолжительность : 25 м. 33 с.
Режим общего битрейта : Переменный
Общий поток : 7697 Кбит/сек
Дата кодирования : UTC 2018-04-10 12:47:02
Программа кодирования : mkvmerge v21.0.0 ('Tardigrades Will Inherit The Earth') 64-bit
Библиотека кодирования : libebml v1.3.5 + libmatroska v1.4.8

Видео
Идентификатор : 1
Формат : AVC
Формат/Информация : Advanced Video Codec
Профиль формата : Main@L4
Настройки формата : CABAC / 3 Ref Frames
Параметр CABAC формата : Да
Параметр RefFrames формата : 3 кадра
Идентификатор кодека : V_MPEG4/ISO/AVC
Продолжительность : 25 м. 33 с.
Вид битрейта : Переменный
Битрейт : 7500 Кбит/сек
Максимальный битрейт : 11,2 Мбит/сек
Ширина : 1920 пикселей
Высота : 1080 пикселей
Соотношение сторон : 16:9
Режим частоты кадров : Постоянный
Частота кадров : 23,976 (24000/1001) кадра/сек
Цветовое пространство : YUV
Субдискретизация насыщенности : 4:2:0
Битовая глубина : 8 бит
Тип развёртки : Прогрессивная
Бит/(Пиксели*Кадры) : 0.151
Размер потока : 1,34 Гбайт (97%)
Библиотека кодирования : x264 core 118
Настройки программы : cabac=1 / ref=3 / deblock=1:0:0 / analyse=0x1:0x111 / me=umh / subme=10 / psy=1 / psy_rd=1.00:0.00 / mixed_ref=1 / me_range=24 / chroma_me=1 / trellis=2 / 8x8dct=0 / cqm=0 / deadzone=21,11 / fast_pskip=1 / chroma_qp_offset=-2 / threads=6 / sliced_threads=0 / nr=0 / decimate=1 / interlaced=0 / bluray_compat=0 / constrained_intra=0 / bframes=2 / b_pyramid=0 / b_adapt=2 / b_bias=0 / direct=3 / weightb=1 / open_gop=0 / weightp=2 / keyint=48 / keyint_min=25 / scenecut=0 / intra_refresh=0 / rc_lookahead=0 / rc=2pass / mbtree=1 / bitrate=7500 / ratetol=1.0 / qcomp=0.50 / qpmin=6 / qpmax=51 / qpstep=4 / cplxblur=20.0 / qblur=0.5 / vbv_maxrate=11250 / vbv_bufsize=15000 / nal_hrd=vbr / ip_ratio=1.40 / aq=1:1.00
Язык : Japanese
Default : Да
Forced : Нет

Аудио
Идентификатор : 2
Формат : AAC
Формат/Информация : Advanced Audio Codec
Профиль формата : LC
Идентификатор кодека : A_AAC-2
Продолжительность : 25 м. 33 с.
Битрейт : 192 Кбит/сек
Каналы : 2 канала
Расположение каналов : Front: L R
Частота : 44,1 КГц
Частота кадров : 43,066 кадра/сек (1024 SPF)
Метод сжатия : С потерями
Размер потока : 35,8 Мбайт (3%)
Заголовок : Андрей
Язык : Russian
Default : Да
Forced : Нет


Общее
Уникальный идентификатор : 161309088121988831485111387507238202122 (0x795B00146BAD0ACF3DC0288DCF2D6B0A)
Полное имя : Маленькая принцесса Сара. Серия 22. Праздник на чердаке.mkv
Формат : Matroska
Версия формата : Version 4 / Version 2
Размер файла : 1,37 Гбайт
Продолжительность : 25 м. 33 с.
Режим общего битрейта : Переменный
Общий поток : 7697 Кбит/сек
Дата кодирования : UTC 2018-04-10 14:51:52
Программа кодирования : mkvmerge v21.0.0 ('Tardigrades Will Inherit The Earth') 64-bit
Библиотека кодирования : libebml v1.3.5 + libmatroska v1.4.8

Видео
Идентификатор : 1
Формат : AVC
Формат/Информация : Advanced Video Codec
Профиль формата : Main@L4
Настройки формата : CABAC / 3 Ref Frames
Параметр CABAC формата : Да
Параметр RefFrames формата : 3 кадра
Идентификатор кодека : V_MPEG4/ISO/AVC
Продолжительность : 25 м. 33 с.
Вид битрейта : Переменный
Битрейт : 7500 Кбит/сек
Максимальный битрейт : 11,2 Мбит/сек
Ширина : 1920 пикселей
Высота : 1080 пикселей
Соотношение сторон : 16:9
Режим частоты кадров : Постоянный
Частота кадров : 23,976 (24000/1001) кадра/сек
Цветовое пространство : YUV
Субдискретизация насыщенности : 4:2:0
Битовая глубина : 8 бит
Тип развёртки : Прогрессивная
Бит/(Пиксели*Кадры) : 0.151
Размер потока : 1,34 Гбайт (97%)
Библиотека кодирования : x264 core 118
Настройки программы : cabac=1 / ref=3 / deblock=1:0:0 / analyse=0x1:0x111 / me=umh / subme=10 / psy=1 / psy_rd=1.00:0.00 / mixed_ref=1 / me_range=24 / chroma_me=1 / trellis=2 / 8x8dct=0 / cqm=0 / deadzone=21,11 / fast_pskip=1 / chroma_qp_offset=-2 / threads=8 / sliced_threads=0 / nr=0 / decimate=1 / interlaced=0 / bluray_compat=0 / constrained_intra=0 / bframes=2 / b_pyramid=0 / b_adapt=2 / b_bias=0 / direct=3 / weightb=1 / open_gop=0 / weightp=2 / keyint=48 / keyint_min=25 / scenecut=0 / intra_refresh=0 / rc_lookahead=0 / rc=2pass / mbtree=1 / bitrate=7500 / ratetol=1.0 / qcomp=0.50 / qpmin=6 / qpmax=51 / qpstep=4 / cplxblur=20.0 / qblur=0.5 / vbv_maxrate=11250 / vbv_bufsize=15000 / nal_hrd=vbr / ip_ratio=1.40 / aq=1:1.00
Язык : Japanese
Default : Да
Forced : Нет

Аудио
Идентификатор : 2
Формат : AAC
Формат/Информация : Advanced Audio Codec
Профиль формата : LC
Идентификатор кодека : A_AAC-2
Продолжительность : 25 м. 33 с.
Битрейт : 192 Кбит/сек
Каналы : 2 канала
Расположение каналов : Front: L R
Частота : 44,1 КГц
Частота кадров : 43,066 кадра/сек (1024 SPF)
Метод сжатия : С потерями
Размер потока : 35,8 Мбайт (3%)
Заголовок : Андрей
Язык : Russian
Default : Да
Forced : Нет




   Похожие торренты   Торрент   Размер 
В этой теме нет новых непрочитанных сообщений. Sara Montiel - Поет Сара Монтьель (1974) MP3

16 | 1

65.61 МБ

В этой теме нет новых непрочитанных сообщений. Её зовут Сара / Elle s'appelait Sarah (2010) BDRip 1080p | L2

6 | 1

7.6 ГБ

В этой теме нет новых непрочитанных сообщений. Принцесса Мононоке / Mononoke Hime (1997) BDRip 1080p | D, P

23 | 7

11.66 ГБ

В этой теме нет новых непрочитанных сообщений. Принцесса Монако / Grace of Monaco (2014) BDRip 1080p | Лицензия

328 | 78

9.9 ГБ

В этой теме нет новых непрочитанных сообщений. Принцесса Монако / Grace of Monaco (2014) BDRip 1080p от MediaClub | Лицензия

392 | 122

7.61 ГБ

В этой теме нет новых непрочитанных сообщений. Дочь Робин Гуда: Принцесса воров / Princess of Thieves (2001) BDRip 1080p от MediaClub | P

12 | 4

8.98 ГБ

В этой теме нет новых непрочитанных сообщений. Обнаженная Принцесса / Голая Принцесса / The Nude Princess / La Principessa Nuda (1976) DVDRip от KinoRay & Sheikn | L1

113 | 30

699.94 МБ




Вы не можете начинать темы
Вы не можете отвечать на сообщения
Вы не можете редактировать свои сообщения
Вы не можете удалять свои сообщения
Вы не можете добавлять вложения

Перейти:  
 Вход
ppkBB3cker v.2 © 2008-2014 @ PPK
[ Time : 0.675s | 16 Queries | GZIP : Off ]

cron