img image001 image001 image001 image001 image001 image001 image001 image001 image001 image001 image001 image001 image001 image001 image001 image001

Planets Sun Sun Sun
Статистика раздачи
Автор: Снежана | Размер: 4.67 ГБ | Добавлен: 02 июл 2018
Раздают: 71    Качают: 14
Скачать торрент
Скачать торрент
Описание торрента

СообщениеДобавлено: 02 июл 2018 

Информация о фильме
Название: Мегалобокс
Оригинальное название: Megalo Box
Год выхода: 2018
Жанр: Cпорт, повседневность, драма
Режиссер: Морияма Ё
Художник: Коно Дзиро
В ролях: Хосоя Ёсимаса, Сайто Сиро, Ясумото Хироки, Мори Нанако, Мурасэ Митиё, Киносита Хироюки
О фильме:
Что такое бокс в нашем привычном понимании? Это наиболее культурный спорт из всех видов спорта, основанных на драке. Двое человек стоят на ринге и кулаками, облачёнными в специальные перчатки, наносят друг другу удары, пока один из них не одержит победу. Таким бокс видели наши родители, на сегодняшний день ничего не изменилось, и мы считаем, что и дальше всё будет точно так же. Но что если людям, живущим в мире стремительно развивающихся технологий, покажется, что одних перчаток недостаточно? Может быть применить эти технологии и усовершенствовать данный вид спорта? Так в ближайшем будущем и родился мегалобокс - единоборство, в котором боксёры совмещают свои навыки, полученные путём долгих и изнурительных тренировок, с расширенными возможностями протезного экзоскелета. История расскажет нам о парне по прозвищу Джейди, который решает покорить подпольный мир мегалобокса. Джейди каждый раз ставит свою жизнь на кон, бросая вызов судьбе. И однажды судьба сжалилась над ним, и он получает спонсора и шанс на хорошее будущее.

World Art | MAL
Страна: Япония
Студия: TMS
Продолжительность: 00:24:30
Язык: Русский, Японский
Перевод: Любительский (многоголосый, закадровый)
Файл
Качество: HDTVRip
Формат: MKV
Кодек: H.264
Аудио кодек: AAC
Видео: 1280x720, 23.976 fps, 2000 kbps
Аудио RUS: 48.0 kHz, AAC, 2 ch, 192 kbps - AniLibria
Аудио JAP: 48.0 kHz, AAC, 2 ch, 192 kbps
Субтитры: русские (встроенные надписи, ASS)
Субтитры: русские (встроенные полный перевод, ASS) - Firegorn Team
Субтитры: русские (встроенные полный перевод, ASS) - SovetRomantica
Релиз от:
Озвучивание: Myuk, Ados, Amikiri, Derenn
Перевод: Risens Team
Тайминг и работа со звуком: Akkakken, Pomidorchik

Раунд 01: "Продаться или умереть?"
Раунд 02: Человек умирает лишь раз
Раунд 03: Привод мёртв
Раунд 04: Давай станцуем со смертью
Раунд 05: Посланник Смерти
Раунд 06: Пока последний пёс не умрёт
Раунд 07: Дорога смерти
Раунд 08: Дедлайн мечты
Раунд 09: Мёртвое поле никогда не будет цвести
Раунд 10: Жребий брошен
Раунд 11: Марш смерти
Раунд 12: Прыжки у края смерти
Раунд 13: Рожденные умереть
General
Format : Matroska
Format version : Version 4 / Version 2
File size : 415 MiB
Duration : 24 min
Overall bit rate : 2 375 kb/s
Encoded date : UTC 2018-05-27 05:22:00
Writing application : mkvmerge v8.3.0 ('Over the Horizon') 64bit
Writing library : libebml v1.3.1 + libmatroska v1.4.2
Attachments : arial.ttf / arialbd.ttf / ARIALNB.TTF / BOMGcom004.ttf / BrushType Bold.ttf / cambriab.ttf / cambriaz.ttf / DS STAIN.TTF / georgiab.ttf / MTCORSVA.TTF / timesbd.ttf / v_DigitalStrip_2.0.ttf / Comfortaa-Regular.ttf / DIST.ttf / Georgia_0.ttf
Video
ID : 1
Format : AVC
Format/Info : Advanced Video Codec
Format profile : High@L4.1
Format settings, CABAC : Yes
Format settings, ReFrames : 4 frames
Codec ID : V_MPEG4/ISO/AVC
Duration : 24 min
Bit rate : 1 957 kb/s
Width : 1 280 pixels
Height : 720 pixels
Display aspect ratio : 16:9
Frame rate mode : Constant
Frame rate : 23.976 (24000/1001) FPS
Color space : YUV
Chroma subsampling : 4:2:0
Bit depth : 8 bits
Scan type : Progressive
Bits/(Pixel*Frame) : 0.089
Stream size : 342 MiB (82%)
Writing library : x264 core 129 r2245+729M 1a52e03
Encoding settings : cabac=1 / ref=4 / deblock=1:1:-1 / analyse=0x3:0x113 / me=umh / subme=9 / psy=1 / fade_compensate=0.00 / psy_rd=1.00:0.00 / mixed_ref=1 / me_range=24 / chroma_me=1 / trellis=2 / 8x8dct=1 / cqm=0 / deadzone=21,11 / fast_pskip=1 / chroma_qp_offset=-2 / threads=8 / lookahead_threads=1 / sliced_threads=0 / nr=0 / decimate=1 / interlaced=0 / bluray_compat=0 / constrained_intra=0 / fgo=0 / bframes=9 / b_pyramid=2 / b_adapt=2 / b_bias=0 / direct=1 / weightb=1 / open_gop=0 / weightp=2 / keyint=240 / keyint_min=24 / scenecut=40 / intra_refresh=0 / rc=crf / mbtree=0 / crf=18.5 / qcomp=0.72 / qpmin=0 / qpmax=69 / qpstep=4 / ip_ratio=1.40 / pb_ratio=1.30 / aq=1:0.85
Default : Yes
Forced : No
Color range : Limited
Color primaries : BT.709
Transfer characteristics : BT.709
Matrix coefficients : BT.709
Audio #1
ID : 2
Format : AAC
Format/Info : Advanced Audio Codec
Format profile : LC
Codec ID : A_AAC
Duration : 24 min
Bit rate : 192 kb/s
Channel(s) : 2 channels
Channel positions : Front: L R
Sampling rate : 48.0 kHz
Frame rate : 46.875 FPS (1024 spf)
Compression mode : Lossy
Stream size : 33.1 MiB (8%)
Title : AniLibria
Language : Russian
Default : Yes
Forced : No
Audio #2
ID : 3
Format : AAC
Format/Info : Advanced Audio Codec
Format profile : LC
Codec ID : A_AAC
Duration : 24 min
Bit rate : 192 kb/s
Channel(s) : 2 channels
Channel positions : Front: L R
Sampling rate : 48.0 kHz
Frame rate : 46.875 FPS (1024 spf)
Compression mode : Lossy
Stream size : 33.3 MiB (8%)
Title : Original
Language : Japanese
Default : No
Forced : No
Text #1
ID : 4
Format : ASS
Codec ID : S_TEXT/ASS
Codec ID/Info : Advanced Sub Station Alpha
Duration : 22 min
Bit rate : 9 b/s
Count of elements : 13
Compression mode : Lossless
Stream size : 1.51 KiB (0%)
Title : Надписи
Language : Russian
Default : Yes
Forced : No
Text #2
ID : 5
Format : ASS
Codec ID : S_TEXT/ASS
Codec ID/Info : Advanced Sub Station Alpha
Duration : 23 min
Bit rate : 130 b/s
Count of elements : 284
Compression mode : Lossless
Stream size : 23.0 KiB (0%)
Title : Полные субтитры - Firegorn Team
Language : Russian
Default : No
Forced : No
Text #3
ID : 6
Format : ASS
Codec ID : S_TEXT/ASS
Codec ID/Info : Advanced Sub Station Alpha
Duration : 22 min
Bit rate : 218 b/s
Count of elements : 305
Compression mode : Lossless
Stream size : 36.6 KiB (0%)
Title : Полные субтитры - SovetRomantica
Language : Russian
Default : No
Forced : No



   Похожие торренты   Торрент   Размер 
В этой теме нет новых непрочитанных сообщений. Мегалобокс / Megalo Box [01-08 из 13] (2018) HDTVRip 720p | AniLibria

12 | 2

2.9 ГБ

В этой теме нет новых непрочитанных сообщений. Мегалобокс / Megalo Box [S01] (2018) WEBRip 720p | Kansai

5 | 2

4.73 ГБ

В этой теме нет новых непрочитанных сообщений. Мегалобокс / Megalo Box [S01] (2018) WEBRip 1080p | Kansai

6 | 0

8.75 ГБ

В этой теме нет новых непрочитанных сообщений. Мегалобокс / Megalo Box [01-03 из 12] (2018) WEBRip 1080p | LE-Production

3 | 2

3.2 ГБ

В этой теме нет новых непрочитанных сообщений. Калигула / Caligula [01-11 из 12] (2018) HDTVRip 720p от Anilibria | L

1 | 0

4.74 ГБ

В этой теме нет новых непрочитанных сообщений. Токийский гуль / Tokyo Ghoul [S01-03 + OVA] (2014-2018) HDTVRip 720p от Anilibria | L

41 | 11

12.98 ГБ

В этой теме нет новых непрочитанных сообщений. Вторжение Гигантов / Shingeki no Kyojin [03x01-03 из 24] (2018) HDTVRip 720p от Anilibria | L

0 | 0

1.66 ГБ




Вы не можете начинать темы
Вы не можете отвечать на сообщения
Вы не можете редактировать свои сообщения
Вы не можете удалять свои сообщения
Вы не можете добавлять вложения

Перейти:  
 Вход
ppkBB3cker v.2 © 2008-2014 @ PPK
[ Time : 0.034s | 17 Queries | GZIP : Off ]

cron