img image001 image001 image001 image001 image001 image001 image001 image001 image001 image001 image001 image001 image001 image001 image001 image001

Planets Sun Sun Sun
Статистика раздачи
Автор: Снежана | Размер: 2.87 ГБ | Добавлен: 02 июл 2018
Раздают: 11    Качают: 3
Скачать торрент
Скачать торрент
Описание торрента

СообщениеДобавлено: 02 июл 2018 

Страна: Япония
Год выпуска: 2018
Жанр: приключения, триллер, фантастика
Тип: TV
Продолжительность: ТВ (12 эп.), 00:24:00
Режиссер: Масаюки Сакой
Студия: Studio 3Hz
Описание:
Виртуальная онлайн игра «Мастера Меча Онлайн» вызвала волну негодования и протестов после обнародования СМИ информации о том, что гибель персонажа внутри игры приводила к гибели человека в реальности. Этот скандал привёл практически к краху зарождавшейся индустрии виртуальных компьютерных игр. Однако появление пакета обновлений призванных полностью обезопасить пользователей от хакерских атак во время игры, привело к новому всплеску популярности данного вида развлечения. В результате этого всё новые и новые игры стали появляться с бешеной скоростью. Одна из таких игр нашла преданных фанатов, благодаря мрачному миру и битвами между игроками при помощи стрелковых орудий и мечей. И название данной сверхпопулярной онлайн игры - Призрачная пуля.
Доп. информация:
Релиз GSGroup

Качество: HDTVRip
Тип релиза: Без хардсаба
Формат видео: AVI
Релиз/Автор рипа: gsg
Видео: XviD, 704x400, 1312 Kbps, 23.976 fps, 8 bits
Аудио 1: AC-3, 192 Kbps, 2 channels, 48.0 KHz Язык Русский (в составе контейнера) ; Озвучка: Любительский одноголосый: Persona99
Аудио 2: AC-3, 192 Kbps, 2 channels, 48.0 KHz Язык Японский ; Озвучка 2: оригинал
Субтитры: внешние ass, srt Язык субтитров русский ; Перевод: Перевод, редакция: Aero Оформление: Nika_Elrik
Код:
General
Complete name                            : Sword Art Online Alternative Gun Gale Online1-Sword Art Online ~Alternative Gun Gale Online~ [Persona99](XviD 704x400 AC3).rus.jap.avi
Format                                   : AVI
Format/Info                              : Audio Video Interleave
File size                                : 294 MiB
Duration                                 : 23mn 59s
Overall bit rate                         : 1 710 Kbps
Writing application                      : VirtualDubMod 1.5.10.2 (build 2540/release)
Writing library                          : VirtualDubMod build 2540/release
Video
ID                                       : 0
Format                                   : MPEG-4 Visual
Format profile                           : Advanced Simple@L5
Format settings, BVOP                    : 2
Format settings, QPel                    : No
Format settings, GMC                     : No warppoints
Format settings, Matrix                  : Default (H.263)
Codec ID                                 : XVID
Codec ID/Hint                            : XviD
Duration                                 : 23mn 59s
Bit rate                                 : 1 312 Kbps
Width                                    : 704 pixels
Height                                   : 400 pixels
Display aspect ratio                     : 16:9
Frame rate                               : 23.976 fps
Color space                              : YUV
Chroma subsampling                       : 4:2:0
Bit depth                                : 8 bits
Scan type                                : Progressive
Compression mode                         : Lossy
Bits/(Pixel*Frame)                       : 0.194
Stream size                              : 225 MiB (77%)
Writing library                          : XviD 67
Audio #1
ID                                       : 1
Format                                   : AC-3
Format/Info                              : Audio Coding 3
Mode extension                           : CM (complete main)
Format settings, Endianness              : Big
Codec ID                                 : 2000
Duration                                 : 23mn 59s
Bit rate mode                            : Constant
Bit rate                                 : 192 Kbps
Channel(s)                               : 2 channels
Channel positions                        : Front: L R
Sampling rate                            : 48.0 KHz
Compression mode                         : Lossy
Stream size                              : 33.0 MiB (11%)
Alignment                                : Split accross interleaves
Interleave, duration                     : 42 ms (1.00 video frame)
Interleave, preload duration             : 500 ms
Audio #2
ID                                       : 2
Format                                   : AC-3
Format/Info                              : Audio Coding 3
Mode extension                           : CM (complete main)
Format settings, Endianness              : Big
Codec ID                                 : 2000
Duration                                 : 23mn 59s
Bit rate mode                            : Constant
Bit rate                                 : 192 Kbps
Channel(s)                               : 2 channels
Channel positions                        : Front: L R
Sampling rate                            : 48.0 KHz
Compression mode                         : Lossy
Stream size                              : 33.0 MiB (11%)
Alignment                                : Split accross interleaves
Interleave, duration                     : 42 ms (1.00 video frame)
Interleave, preload duration             : 500 ms
 
01. Squad Jam
02. GGO
03. Fan Letter
04. Death Game
05. Leave the Last Battle to Me
06. SAO Loser
07. Second Squad Jam
08. Booby Trap
09. Ten-Minute Massacre
10. The Devil`s Comeback




Семпл:



   Похожие торренты   Торрент   Размер 
В этой теме нет новых непрочитанных сообщений. Мастера Меча Онлайн: Альтернативная «Призрачная пуля» / Sword Art Online Alternative: Gun Gale Online [01-05 из 12] (2018) WEBRip 1080p | D, L

8 | 3

3.02 ГБ

В этой теме нет новых непрочитанных сообщений. Мастера Меча Онлайн: Альтернативная «Призрачная пуля» / Sword Art Online Alternative: Gun Gale Online [01-05 из 12] (2018) WEBRip 720p | D, L

19 | 2

1.94 ГБ

В этой теме нет новых непрочитанных сообщений. Мастера Меча Онлайн: Альтернативная "Призрачная пуля" / Sword Art Online Alternative (Сакой Масаюки) [TV] [1 из 12] [Studio Band] [RAW] [RUS+JAP+SUB] [2018 г., приключения, HDTVRip] [720p]

0 | 2

359.83 МБ

В этой теме нет новых непрочитанных сообщений. Мастера Меча Онлайн: Альтернативная "Призрачная пуля" / Sword Art Online Alternative (Сакой Масаюки) [TV] [1-2 из 12] [Studio Band] [RAW] [RUS+JAP+SUB] [2018 г., приключения, HDTVRip] [720p]

0 | 2

704.85 МБ

В этой теме нет новых непрочитанных сообщений. Мастера Меча Онлайн: Альтернативная "Призрачная пуля" / Sword Art Online Alternative (Сакой Масаюки) [TV] [1-3 из 12] [Studio Band] [RAW] [RUS+JAP+SUB] [2018 г., приключения, HDTVRip] [720p]

0 | 2

1.01 ГБ

В этой теме нет новых непрочитанных сообщений. Мастера меча онлайн 2 / Sword Art Online II [TV] [01-02 из 24] (2014) HDTVRip 720 | Persona99

10 | 9

884.59 МБ

В этой теме нет новых непрочитанных сообщений. Мастера меча онлайн 2 / Sword Art Online II [TV] [01-24 из 24] (2014) HDTVRip 720 | Persona99

39 | 14

11.38 ГБ




Вы не можете начинать темы
Вы не можете отвечать на сообщения
Вы не можете редактировать свои сообщения
Вы не можете удалять свои сообщения
Вы не можете добавлять вложения

Перейти:  
 Вход
ppkBB3cker v.2 © 2008-2014 @ PPK
[ Time : 0.042s | 17 Queries | GZIP : Off ]

cron