img image001 image001 image001 image001 image001 image001 image001 image001 image001 image001 image001 image001 image001 image001 image001 image001

Planets Sun Sun Sun
Статистика раздачи
Автор: Снежана | Размер: 1.76 ГБ | Добавлен: 14 авг 2018
Раздают: 0    Качают: 2
Скачать торрент
Скачать торрент
Описание торрента

СообщениеДобавлено: 14 авг 2018 

Информация о фильме
Название: Боруто: Новое Поколение
Оригинальное название: Boruto: Naruto Next Generations
Год выпуска: 2018
Жанр: Приключения, боевые искусства, сёнэн, мультсериал
Режиссер: Нориюки Абэ
В ролях: Юко Сампэй, Кокоро Кикути, Рюити Кидзима, Рёко Сираиси, Кэнсё Оно, Ацуси Абэ, Дзюнко Такэути, Синдзи Кавада, Саори Хаями, Нана Мидзуки
О фильме:
Главным героем теперь будет Узумаки Боруто. Являясь сыном Седьмого Хокаге, он унаследовал энергичность и сильных характер своего отца, однако сам по себе является непоседой, бунтарем и хулиганом. Боруто часто прогуливает уроки в Академии Ниндзя и совершает различные пакости. Не смотря на это, имеет много друзей, которые считает его настоящим талантом и гением. В свою очередь, он относится к друзьям с большой добротой. Имея неугомонный характер, Боруто крайне сложно работать в команде. И уже первое задание для него становится настоящей проблемой, так как он не сотрудничает с другими ниндзя, а пытается сделать все сам. Но позже он встречает таинственного шиноби и его жизнь сильно меняется. Встреченный им враг является главным противником Учихи Саске - лучшего друга Наруто, который ушел много лет назад в путешествие. После чего Учиха Саске предлагает стать наставником Боруто...

Страна: Япония
Студия: Studio Pierrot
Продолжительность: 1x ~ 00:24:00
Перевод: Любительский многоголосый [ColdFilm]
Файл
Кодек: x264 (AVC)
Качество: WEBRip 1080p
Видео: 5000 Кбит/с, 1920x1080, 23.976 fps
Аудио: Русский (AC3, 2 ch, 192 Кбит/с)


General
Unique ID : 180204370889027833841037640832445027975 (0x879219724F0F082BA7198F87B0139687)
Complete name : Boruto.Naruto.Next.Generations.E65.1080p.ColdFilm.mkv
Format : Matroska
Format version : Version 2
File size : 900 MiB
Duration : 24 min 22 s
Overall bit rate : 5 164 kb/s
Encoded date : UTC 2018-07-19 11:54:35 / UTC 1970-01-01 00:00:00
Writing application : mkvmerge v3.3.0 ('Language') built on Mar 24 2010 14:59:24
Writing library : libebml v0.8.0 + libmatroska v0.9.0 / Lavf54.63.104
Video
ID : 1
Format : AVC
Format/Info : Advanced Video Codec
Format profile : Main@L4
Format settings : CABAC / 1 Ref Frames
Format settings, CABAC : Yes
Format settings, ReFrames : 1 frame
Codec ID : V_MPEG4/ISO/AVC
Duration : 24 min 22 s
Bit rate : 5 000 kb/s
Width : 1 920 pixels
Height : 1 080 pixels
Display aspect ratio : 16:9
Frame rate mode : Constant
Frame rate : 23.976 (24000/1001) FPS
Color space : YUV
Chroma subsampling : 4:2:0
Bit depth : 8 bits
Scan type : Progressive
Bits/(Pixel*Frame) : 0.101
Stream size : 849 MiB (94%)
Writing library : x264 core 129
Default : No
Forced : No
Audio
ID : 2
Format : AC-3
Format/Info : Audio Coding 3
Codec ID : A_AC3
Duration : 24 min 22 s
Bit rate mode : Constant
Bit rate : 192 kb/s
Channel(s) : 2 channels
Channel positions : Front: L R
Sampling rate : 48.0 kHz
Frame rate : 31.250 FPS (1536 SPF)
Bit depth : 16 bits
Compression mode : Lossy
Stream size : 33.5 MiB (4%)
Service kind : Complete Main
Default : Yes
Forced : No

Релиз от:



   Похожие торренты   Торрент   Размер 
В этой теме нет новых непрочитанных сообщений. Боруто: Новое поколение Наруто / Boruto: Naruto Next Generations [65-75] (2018) WEBRip 1080p | ColdFilm

0 | 0

10.57 ГБ

В этой теме нет новых непрочитанных сообщений. Боруто: Новое поколение Наруто / Boruto: Naruto Next Generations [65-73] (2018) WEBRip 1080p | ColdFilm

0 | 0

7.98 ГБ

В этой теме нет новых непрочитанных сообщений. Боруто: Новое поколение Наруто / Boruto: Naruto Next Generations [65-66] (2018) WEBRip | ColdFilm

0 | 0

490.36 МБ

В этой теме нет новых непрочитанных сообщений. Боруто: Новое поколение Наруто / Boruto: Naruto Next Generations [65-75] (2018) WEBRip | ColdFilm

0 | 0

2.15 ГБ

В этой теме нет новых непрочитанных сообщений. Боруто: Новое поколение Наруто / Boruto: Naruto Next Generations [65-73] (2018) WEBRip | ColdFilm

0 | 0

1.66 ГБ

В этой теме нет новых непрочитанных сообщений. Боруто: Новое поколение Наруто / Boruto: Naruto Next Generations [65-73] (2018) WEBRip 720p | ColdFilm

0 | 0

5.67 ГБ

В этой теме нет новых непрочитанных сообщений. Боруто: Новое поколение Наруто / Boruto: Naruto Next Generations [65-75] (2018) WEBRip 720p | ColdFilm

0 | 0

7.48 ГБ




Вы не можете начинать темы
Вы не можете отвечать на сообщения
Вы не можете редактировать свои сообщения
Вы не можете удалять свои сообщения
Вы не можете добавлять вложения

Перейти:  
 Вход
ppkBB3cker v.2 © 2008-2014 @ PPK
[ Time : 0.026s | 15 Queries | GZIP : Off ]

cron