img image001 image001 image001 image001 image001 image001 image001 image001 image001 image001 image001 image001 image001 image001 image001 image001

Planets Sun Sun Sun
Статистика раздачи
Автор: Снежана | Размер: 897.82 МБ | Добавлен: 14 авг 2018
Раздают: 0    Качают: 0
Скачать торрент
Скачать торрент
Описание торрента

СообщениеДобавлено: 14 авг 2018 

Информация о фильме
Название: Сириус-егерь
Оригинальное название: Sirius the Jaeger
Год выхода: 2018
Жанр: Приключения, вампиры, мистика
Режиссер: Андо Масахиро
Описание:
События аниме разворачиваются в Токио в 1930 году. На вокзал прибывает загадочная группа людей с чехлами для музыкальных инструментов. Как выяснится позже, они — охотники на вампиров, известные как «егери». Среди них невозмутимостью выделяется молодой человек по имени Юлий. Он — оборотень, одержимый местью, ведь вся его деревня была уничтожена вампирами. Все прибывшие на вокзал — участники смертельной битвы за Свод Сириуса. Противостояние должно определить дальнейшую судьбу вампиров. С чем же придётся столкнуться героям?..
Доп. информация:

Релиз GSGroup
Страна: Япония
Студия: P.A. Works
Продолжительность: ТВ (12 эп.) 00:24:00
Перевод: Любительский одноголосый (Persona99)
Субтитры: русские (внешние)
перевод Nika_Elrik, Zero
Качество: HDTVRip
Формат видео: AVI
Видео: XviD 720x400 pix, 1338 Kbps, 23.976 fps, 8 bits.
Аудио 1: AC3 48 КГц; 192 Кбит/сек , 2.0 Язык Русский (в составе контейнера) ; Озвучка: Любительский одноголосый (Persona99)
Аудио 2: AC3 48 КГц; 192 Кбит/сек , 2.0 оригинал (Японский)
Семпл
Код:
General
Complete name                            Sirius the Jaeger TV\01_Sirius the Jaeger [Persona99](XviD 720x400 AC3).rus.jap.avi
Format                                   : AVI
Format/Info                              : Audio Video Interleave
File size                                : 298 MiB
Duration                                 : 24mn 0s
Overall bit rate                         : 1 736 Kbps
Writing application                      : VirtualDubMod 1.5.10.2 (build 2540/release)
Writing library                          : VirtualDubMod build 2540/release
Video
ID                                       : 0
Format                                   : MPEG-4 Visual
Format profile                           : Advanced Simple@L5
Format settings, BVOP                    : 2
Format settings, QPel                    : No
Format settings, GMC                     : No warppoints
Format settings, Matrix                  : Default (H.263)
Codec ID                                 : XVID
Codec ID/Hint                            : XviD
Duration                                 : 24mn 0s
Bit rate                                 : 1 338 Kbps
Width                                    : 720 pixels
Height                                   : 400 pixels
Display aspect ratio                     : 16:9
Frame rate                               : 23.976 fps
Color space                              : YUV
Chroma subsampling                       : 4:2:0
Bit depth                                : 8 bits
Scan type                                : Progressive
Compression mode                         : Lossy
Bits/(Pixel*Frame)                       : 0.194
Stream size                              : 230 MiB (77%)
Writing library                          : XviD 67
Audio #1
ID                                       : 1
Format                                   : AC-3
Format/Info                              : Audio Coding 3
Mode extension                           : CM (complete main)
Format settings, Endianness              : Big
Codec ID                                 : 2000
Duration                                 : 24mn 0s
Bit rate mode                            : Constant
Bit rate                                 : 192 Kbps
Channel(s)                               : 2 channels
Channel positions                        : Front: L R
Sampling rate                            : 48.0 KHz
Compression mode                         : Lossy
Stream size                              : 33.0 MiB (11%)
Alignment                                : Split accross interleaves
Interleave, duration                     : 42 ms (1.00 video frame)
Interleave, preload duration             : 500 ms
Audio #2
ID                                       : 2
Format                                   : AC-3
Format/Info                              : Audio Coding 3
Mode extension                           : CM (complete main)
Format settings, Endianness              : Big
Codec ID                                 : 2000
Duration                                 : 24mn 0s
Bit rate mode                            : Constant
Bit rate                                 : 192 Kbps
Channel(s)                               : 2 channels
Channel positions                        : Front: L R
Sampling rate                            : 48.0 KHz
Compression mode                         : Lossy
Stream size                              : 33.0 MiB (11%)
Alignment                                : Split accross interleaves
Interleave, duration                     : 42 ms (1.00 video frame)
Interleave, preload duration             : 500 ms
 
01. The Revenant Howls in Darkness
02. Deprived Talent
03. Indelible Memories




   Похожие торренты   Торрент   Размер 
В этой теме нет новых непрочитанных сообщений. Сириус-егерь / Sirius the Jaeger [01-04 из 12] (2018) HDTVRip | Persona99

0 | 0

1.17 ГБ

В этой теме нет новых непрочитанных сообщений. Небесные волки: Сириус-егерь / Sirius the Jaeger [01-12 из 12] (2018) HDTVRip 720p от AniMedia | L

2 | 0

4.54 ГБ

В этой теме нет новых непрочитанных сообщений. Небесные волки: Сириус-егерь / Sirius the Jaeger [01-12 из 12] (2018) HDTVRip 720p от AniDUB | L

0 | 0

4.54 ГБ

В этой теме нет новых непрочитанных сообщений. Сириус / Sirius / Si-ri-oo-seu [01-04 из 04] (2013) HDTVRip | L1

29 | 1

3.25 ГБ

В этой теме нет новых непрочитанных сообщений. Сириус / Sirius (2013) DVDRip-AVC

1026 | 52

2.39 ГБ

В этой теме нет новых непрочитанных сообщений. Сириус / Sirius (2013) DVDRip-AVC | Sub

691 | 30

2.13 ГБ

В этой теме нет новых непрочитанных сообщений. Персона 5 / Persona 5 The Animation [01-10 из 24] (2018) HDTVRip 720p | Persona99

0 | 0

5.02 ГБ




Вы не можете начинать темы
Вы не можете отвечать на сообщения
Вы не можете редактировать свои сообщения
Вы не можете удалять свои сообщения
Вы не можете добавлять вложения

Перейти:  
 Вход
ppkBB3cker v.2 © 2008-2014 @ PPK
[ Time : 0.208s | 15 Queries | GZIP : Off ]

cron