img image001 image001 image001 image001 image001 image001 image001 image001 image001 image001 image001 image001 image001 image001 image001 image001

Planets Sun Sun Sun
Статистика раздачи
Автор: Снежана | Размер: 2.04 ГБ | Добавлен: 14 авг 2018
Раздают: 0    Качают: 0
Скачать торрент
Скачать торрент
Описание торрента

СообщениеДобавлено: 14 авг 2018 

Информация о фильме
Название: Владыка Вермилиона: Король алого лотоса
Оригинальное название: Lord of Vermilion: Guren no Ou
Страна: Япония
Год выхода: 2018
Жанр: Приключения, фэнтези
Режиссер: Эйдзи Суганума
О фильме: Токио, 29-е января 2030-го года. В окрестностях Токио возникает высокочастотный резонанс, а город окутывает красный туман. Те, кто слышат этот звук, люди и животные, теряют сознание. В Токио всё перекрывают, полагая, что туман несёт неизвестный вирус, вызывающий эпидемию. Однако через шесть дней после инцидента люди просыпаются, будто ничего и не было. После этого перекрытые кварталы Токио постепенно возобновляют работу. Тем не менее, из-за высокочастотного резонанса начинают происходить некоторые причудливые события, и людей окружает более великая тайна. Между тем, молодые люди освобождают силу, скрытую в их крови, осознавая что они являются "сосудами крови мудрости". Вместе, ведомые чем-то неизвестным, они встречаются, общаются и сталкиваются с неизбежным кругом судьбы, жертвуя своей жизнью.
Студия:
Продолжительность: ~ 00:24:00
Перевод: Любительский (многоголосый закадровый)
Озвучили: MezIdA & Revi_Kim & Satsuki
Сборка контейнера: Eugeo
Файл
Формат: mp4
Качество: HDTVRip 720p
Видео: H.264; 1280x720; ~ 2000 Kbps, 23.976fps; (8 bit)
Аудио 1: AAC 48000 Hz, 2.0, 192 kbps Язык Русский
Аудио 2: AAC 48000 Hz, 2.0, 209 kbps Язык Японский
Субтитры: (внешние ASS) Язык субтитров русский ; Перевод: Crunchyroll
Общее
Полное имя : F:KinozalLord_of_Vermilion_Guren_no_Ou_[AniMedia]Lord_of_Vermilion_Guren_no_Ou_[01]_(MezIdA & Revi_Kim & Satsuki).ass
Размер файла : 32,2 Кбайт
Общее
Полное имя : F:KinozalLord_of_Vermilion_Guren_no_Ou_[AniMedia]Lord_of_Vermilion_Guren_no_Ou_[01]_(MezIdA & Revi_Kim & Satsuki).mp4
Формат : MPEG-4
Профиль формата : Base Media
Идентификатор кодека : isom
Размер файла : 431 Мбайт
Продолжительность : 24 м.
Режим общего битрейта : Переменный
Общий поток : 2512 Кбит/сек
Дата кодирования : UTC 2018-07-14 00:28:33
Дата пометки : UTC 2018-07-14 00:28:33
Программа кодирования : Yamb 2.1.0.0 [http://yamb.unite-video.com]
Видео
Идентификатор : 1
Формат : AVC
Формат/Информация : Advanced Video Codec
Профиль формата : Main@L4.1
Параметр CABAC формата : Да
Параметр ReFrames формата : 4 кадра
Идентификатор кодека : avc1
Идентификатор кодека/Информация : Advanced Video Coding
Продолжительность : 23 м.
Битрейт : 2105 Кбит/сек
Максимальный битрейт : 12,0 Мбит/сек
Ширина : 1280 пикселей
Высота : 720 пикселей
Соотношение сторон : 16:9
Режим частоты кадров : Постоянный
Частота кадров : 23,976 кадра/сек
Цветовое пространство : YUV
Субдискретизация насыщенности : 4:2:0
Битовая глубина : 8 бит
Тип развёртки : Прогрессивная
Бит/(Пиксели*Кадры) : 0.095
Размер потока : 361 Мбайт (84%)
Библиотека кодирования : x264 core 155 r2901 7d0ff22
Настройки программы : cabac=1 / ref=3 / deblock=1:0:0 / analyse=0x1:0x111 / me=hex / subme=7 / psy=1 / psy_rd=1.00:0.00 / mixed_ref=1 / me_range=16 / chroma_me=1 / trellis=1 / 8x8dct=0 / cqm=0 / deadzone=21,11 / fast_pskip=1 / chroma_qp_offset=-2 / threads=18 / lookahead_threads=3 / sliced_threads=0 / nr=0 / decimate=1 / interlaced=0 / bluray_compat=0 / constrained_intra=0 / bframes=3 / b_pyramid=2 / b_adapt=1 / b_bias=0 / direct=1 / weightb=1 / open_gop=0 / weightp=2 / keyint=240 / keyint_min=1 / scenecut=40 / intra_refresh=0 / rc_lookahead=40 / rc=crf / mbtree=1 / crf=20.0 / qcomp=0.60 / qpmin=0 / qpmax=69 / qpstep=4 / ip_ratio=1.40 / aq=1:1.50
Дата кодирования : UTC 2018-07-13 16:52:59
Дата пометки : UTC 2018-07-14 00:28:38
Цветовой диапазон : Limited
Основные цвета : BT.709
Характеристики трансфера : BT.709
Коэффициенты матрицы : BT.709
Аудио #1
Идентификатор : 2
Формат : AAC
Формат/Информация : Advanced Audio Codec
Профиль формата : LC
Идентификатор кодека : 40
Продолжительность : 24 м.
Вид битрейта : Переменный
Битрейт : 192 Кбит/сек
Максимальный битрейт : 197 Кбит/сек
Каналы : 2 канала
Расположение каналов : Front: L R
Частота : 48,0 КГц
Метод сжатия : С потерями
Размер потока : 33,0 Мбайт (8%)
Заголовок : MezIdA & Revi_Kim & Satsuki
Язык : Russian
Дата кодирования : UTC 2018-07-14 00:28:37
Дата пометки : UTC 2018-07-14 00:28:38
Аудио #2
Идентификатор : 3
Формат : AAC
Формат/Информация : Advanced Audio Codec
Профиль формата : LC
Идентификатор кодека : 40
Продолжительность : 24 м.
Вид битрейта : Переменный
Битрейт : 210 Кбит/сек
Максимальный битрейт : 260 Кбит/сек
Каналы : 2 канала
Расположение каналов : Front: L R
Частота : 48,0 КГц
Метод сжатия : С потерями
Размер потока : 36,0 Мбайт (8%)
Язык : Japanese
Дата кодирования : UTC 2018-07-14 00:28:38
Дата пометки : UTC 2018-07-14 00:28:38
Общее
Полное имя : F:KinozalLord_of_Vermilion_Guren_no_Ou_[AniMedia]Lord_of_Vermilion_Guren_no_Ou_[02]_(MezIdA & Revi_Kim & Satsuki).ass
Размер файла : 31,2 Кбайт
Общее
Полное имя : F:KinozalLord_of_Vermilion_Guren_no_Ou_[AniMedia]Lord_of_Vermilion_Guren_no_Ou_[02]_(MezIdA & Revi_Kim & Satsuki).mp4
Формат : MPEG-4
Профиль формата : Base Media
Идентификатор кодека : isom
Размер файла : 417 Мбайт
Продолжительность : 24 м.
Режим общего битрейта : Переменный
Общий поток : 2429 Кбит/сек
Дата кодирования : UTC 2018-07-21 15:10:48
Дата пометки : UTC 2018-07-21 15:10:48
Программа кодирования : Yamb 2.1.0.0 [http://yamb.unite-video.com]
Видео
Идентификатор : 1
Формат : AVC
Формат/Информация : Advanced Video Codec
Профиль формата : Main@L4.1
Параметр CABAC формата : Да
Параметр ReFrames формата : 4 кадра
Идентификатор кодека : avc1
Идентификатор кодека/Информация : Advanced Video Coding
Продолжительность : 23 м.
Битрейт : 2023 Кбит/сек
Максимальный битрейт : 13,8 Мбит/сек
Ширина : 1280 пикселей
Высота : 720 пикселей
Соотношение сторон : 16:9
Режим частоты кадров : Постоянный
Частота кадров : 23,976 кадра/сек
Цветовое пространство : YUV
Субдискретизация насыщенности : 4:2:0
Битовая глубина : 8 бит
Тип развёртки : Прогрессивная
Бит/(Пиксели*Кадры) : 0.092
Размер потока : 347 Мбайт (83%)
Заголовок : MezIdA & Revi_Kim & Satsuki
Библиотека кодирования : x264 core 155 r2901 7d0ff22
Настройки программы : cabac=1 / ref=3 / deblock=1:0:0 / analyse=0x1:0x111 / me=hex / subme=7 / psy=1 / psy_rd=1.00:0.00 / mixed_ref=1 / me_range=16 / chroma_me=1 / trellis=1 / 8x8dct=0 / cqm=0 / deadzone=21,11 / fast_pskip=1 / chroma_qp_offset=-2 / threads=18 / lookahead_threads=3 / sliced_threads=0 / nr=0 / decimate=1 / interlaced=0 / bluray_compat=0 / constrained_intra=0 / bframes=3 / b_pyramid=2 / b_adapt=1 / b_bias=0 / direct=1 / weightb=1 / open_gop=0 / weightp=2 / keyint=240 / keyint_min=1 / scenecut=40 / intra_refresh=0 / rc_lookahead=40 / rc=crf / mbtree=1 / crf=20.0 / qcomp=0.60 / qpmin=0 / qpmax=69 / qpstep=4 / ip_ratio=1.40 / aq=1:1.50
Язык : Russian
Дата кодирования : UTC 2018-07-20 23:00:27
Дата пометки : UTC 2018-07-21 15:10:53
Цветовой диапазон : Limited
Основные цвета : BT.709
Характеристики трансфера : BT.709
Коэффициенты матрицы : BT.709
Аудио #1
Идентификатор : 2
Формат : AAC
Формат/Информация : Advanced Audio Codec
Профиль формата : LC
Идентификатор кодека : 40
Продолжительность : 24 м.
Вид битрейта : Переменный
Битрейт : 192 Кбит/сек
Максимальный битрейт : 199 Кбит/сек
Каналы : 2 канала
Расположение каналов : Front: L R
Частота : 48,0 КГц
Метод сжатия : С потерями
Размер потока : 33,0 Мбайт (8%)
Дата кодирования : UTC 2018-07-21 15:10:51
Дата пометки : UTC 2018-07-21 15:10:53
Аудио #2
Идентификатор : 3
Формат : AAC
Формат/Информация : Advanced Audio Codec
Профиль формата : LC
Идентификатор кодека : 40
Продолжительность : 24 м.
Вид битрейта : Переменный
Битрейт : 208 Кбит/сек
Максимальный битрейт : 263 Кбит/сек
Каналы : 2 канала
Расположение каналов : Front: L R
Частота : 48,0 КГц
Метод сжатия : С потерями
Размер потока : 35,7 Мбайт (9%)
Язык : Japanese
Дата кодирования : UTC 2018-07-21 15:10:52
Дата пометки : UTC 2018-07-21 15:10:53
Общее
Полное имя : F:KinozalLord_of_Vermilion_Guren_no_Ou_[AniMedia]Lord_of_Vermilion_Guren_no_Ou_[03]_(MezIdA & Revi_Kim & Satsuki).ass
Размер файла : 39,6 Кбайт
Общее
Полное имя : F:KinozalLord_of_Vermilion_Guren_no_Ou_[AniMedia]Lord_of_Vermilion_Guren_no_Ou_[03]_(MezIdA & Revi_Kim & Satsuki).mp4
Формат : MPEG-4
Профиль формата : Base Media
Идентификатор кодека : isom
Размер файла : 420 Мбайт
Продолжительность : 24 м.
Режим общего битрейта : Переменный
Общий поток : 2447 Кбит/сек
Дата кодирования : UTC 2018-07-28 13:59:25
Дата пометки : UTC 2018-07-28 13:59:25
Программа кодирования : Yamb 2.1.0.0 [http://yamb.unite-video.com]
Видео
Идентификатор : 1
Формат : AVC
Формат/Информация : Advanced Video Codec
Профиль формата : Main@L4.1
Параметр CABAC формата : Да
Параметр ReFrames формата : 4 кадра
Идентификатор кодека : avc1
Идентификатор кодека/Информация : Advanced Video Coding
Продолжительность : 23 м.
Битрейт : 2040 Кбит/сек
Максимальный битрейт : 12,9 Мбит/сек
Ширина : 1280 пикселей
Высота : 720 пикселей
Соотношение сторон : 16:9
Режим частоты кадров : Постоянный
Частота кадров : 23,976 кадра/сек
Цветовое пространство : YUV
Субдискретизация насыщенности : 4:2:0
Битовая глубина : 8 бит
Тип развёртки : Прогрессивная
Бит/(Пиксели*Кадры) : 0.092
Размер потока : 350 Мбайт (83%)
Библиотека кодирования : x264 core 155 r2901 7d0ff22
Настройки программы : cabac=1 / ref=3 / deblock=1:0:0 / analyse=0x1:0x111 / me=hex / subme=7 / psy=1 / psy_rd=1.00:0.00 / mixed_ref=1 / me_range=16 / chroma_me=1 / trellis=1 / 8x8dct=0 / cqm=0 / deadzone=21,11 / fast_pskip=1 / chroma_qp_offset=-2 / threads=18 / lookahead_threads=3 / sliced_threads=0 / nr=0 / decimate=1 / interlaced=0 / bluray_compat=0 / constrained_intra=0 / bframes=3 / b_pyramid=2 / b_adapt=1 / b_bias=0 / direct=1 / weightb=1 / open_gop=0 / weightp=2 / keyint=240 / keyint_min=1 / scenecut=40 / intra_refresh=0 / rc_lookahead=40 / rc=crf / mbtree=1 / crf=20.0 / qcomp=0.60 / qpmin=0 / qpmax=69 / qpstep=4 / ip_ratio=1.40 / aq=1:1.50
Дата кодирования : UTC 2018-07-28 01:34:03
Дата пометки : UTC 2018-07-28 13:59:29
Цветовой диапазон : Limited
Основные цвета : BT.709
Характеристики трансфера : BT.709
Коэффициенты матрицы : BT.709
Аудио #1
Идентификатор : 2
Формат : AAC
Формат/Информация : Advanced Audio Codec
Профиль формата : LC
Идентификатор кодека : 40
Продолжительность : 24 м.
Вид битрейта : Переменный
Битрейт : 192 Кбит/сек
Максимальный битрейт : 197 Кбит/сек
Каналы : 2 канала
Расположение каналов : Front: L R
Частота : 48,0 КГц
Метод сжатия : С потерями
Размер потока : 33,0 Мбайт (8%)
Заголовок : MezIdA & Revi_Kim & Satsuki
Дата кодирования : UTC 2018-07-28 13:59:27
Дата пометки : UTC 2018-07-28 13:59:29
Аудио #2
Идентификатор : 3
Формат : AAC
Формат/Информация : Advanced Audio Codec
Профиль формата : LC
Идентификатор кодека : 40
Продолжительность : 23 м.
Вид битрейта : Переменный
Битрейт : 209 Кбит/сек
Максимальный битрейт : 259 Кбит/сек
Каналы : 2 канала
Расположение каналов : Front: L R
Частота : 48,0 КГц
Метод сжатия : С потерями
Размер потока : 36,0 Мбайт (9%)
Язык : Japanese
Дата кодирования : UTC 2018-07-28 13:59:28
Дата пометки : UTC 2018-07-28 13:59:29
Общее
Полное имя : F:KinozalLord_of_Vermilion_Guren_no_Ou_[AniMedia]Lord_of_Vermilion_Guren_no_Ou_[04]_(MezIdA & Revi_Kim & Satsuki).ass
Размер файла : 24,9 Кбайт
Общее
Полное имя : F:KinozalLord_of_Vermilion_Guren_no_Ou_[AniMedia]Lord_of_Vermilion_Guren_no_Ou_[04]_(MezIdA & Revi_Kim & Satsuki).mp4
Формат : MPEG-4
Профиль формата : Base Media
Идентификатор кодека : isom
Размер файла : 463 Мбайт
Продолжительность : 24 м.
Режим общего битрейта : Переменный
Общий поток : 2694 Кбит/сек
Дата кодирования : UTC 2018-08-05 12:51:28
Дата пометки : UTC 2018-08-05 12:51:28
Программа кодирования : Yamb 2.1.0.0 [http://yamb.unite-video.com]
Видео
Идентификатор : 1
Формат : AVC
Формат/Информация : Advanced Video Codec
Профиль формата : Main@L4.1
Параметр CABAC формата : Да
Параметр ReFrames формата : 4 кадра
Идентификатор кодека : avc1
Идентификатор кодека/Информация : Advanced Video Coding
Продолжительность : 23 м.
Битрейт : 2286 Кбит/сек
Максимальный битрейт : 13,0 Мбит/сек
Ширина : 1280 пикселей
Высота : 720 пикселей
Соотношение сторон : 16:9
Режим частоты кадров : Постоянный
Частота кадров : 23,976 кадра/сек
Цветовое пространство : YUV
Субдискретизация насыщенности : 4:2:0
Битовая глубина : 8 бит
Тип развёртки : Прогрессивная
Бит/(Пиксели*Кадры) : 0.103
Размер потока : 392 Мбайт (85%)
Библиотека кодирования : x264 core 155 r2901 7d0ff22
Настройки программы : cabac=1 / ref=3 / deblock=1:0:0 / analyse=0x1:0x111 / me=hex / subme=7 / psy=1 / psy_rd=1.00:0.00 / mixed_ref=1 / me_range=16 / chroma_me=1 / trellis=1 / 8x8dct=0 / cqm=0 / deadzone=21,11 / fast_pskip=1 / chroma_qp_offset=-2 / threads=18 / lookahead_threads=3 / sliced_threads=0 / nr=0 / decimate=1 / interlaced=0 / bluray_compat=0 / constrained_intra=0 / bframes=3 / b_pyramid=2 / b_adapt=1 / b_bias=0 / direct=1 / weightb=1 / open_gop=0 / weightp=2 / keyint=240 / keyint_min=1 / scenecut=40 / intra_refresh=0 / rc_lookahead=40 / rc=crf / mbtree=1 / crf=20.0 / qcomp=0.60 / qpmin=0 / qpmax=69 / qpstep=4 / ip_ratio=1.40 / aq=1:1.50
Дата кодирования : UTC 2018-08-03 22:43:38
Дата пометки : UTC 2018-08-05 12:51:35
Цветовой диапазон : Limited
Основные цвета : BT.709
Характеристики трансфера : BT.709
Коэффициенты матрицы : BT.709
Аудио #1
Идентификатор : 2
Формат : AAC
Формат/Информация : Advanced Audio Codec
Профиль формата : LC
Идентификатор кодека : 40
Продолжительность : 24 м.
Вид битрейта : Переменный
Битрейт : 192 Кбит/сек
Максимальный битрейт : 199 Кбит/сек
Каналы : 2 канала
Расположение каналов : Front: L R
Частота : 48,0 КГц
Метод сжатия : С потерями
Размер потока : 33,0 Мбайт (7%)
Заголовок : MezIdA & Revi_Kim & Satsuki
Язык : Russian
Дата кодирования : UTC 2018-08-05 12:51:34
Дата пометки : UTC 2018-08-05 12:51:35
Аудио #2
Идентификатор : 3
Формат : AAC
Формат/Информация : Advanced Audio Codec
Профиль формата : LC
Идентификатор кодека : 40
Продолжительность : 23 м.
Вид битрейта : Переменный
Битрейт : 210 Кбит/сек
Максимальный битрейт : 257 Кбит/сек
Каналы : 2 канала
Расположение каналов : Front: L R
Частота : 48,0 КГц
Метод сжатия : С потерями
Размер потока : 36,1 Мбайт (8%)
Язык : Japanese
Дата кодирования : UTC 2018-08-05 12:51:34
Дата пометки : UTC 2018-08-05 12:51:35
01. Our Lives Are the Debt We Pay Our Enemies
02. You Don't Who I Am Yet
03. Who Set Fire to an Old Conflict?
04. Why Do I Love My Despised Enemy




   Похожие торренты   Торрент   Размер 
В этой теме нет новых непрочитанных сообщений. Радиант / Radiant [01 из 21] (2018) HDTVRip 720p от AniMedia | L

0 | 0

454.13 МБ

В этой теме нет новых непрочитанных сообщений. Сказка о хвосте феи / Fairy Tail [03х01 из 25] (2018) HDTVRip 720p от AniMedia | L2

0 | 0

382.94 МБ

В этой теме нет новых непрочитанных сообщений. Семь смертных грехов / Nanatsu no Taizai [02x01-22 из 24] (2018) HDTVRip 720p от AniMedia | L2

0 | 0

9.19 ГБ

В этой теме нет новых непрочитанных сообщений. Джульетта Из Школы-Интерната / Kishuku Gakkou no Juliet [01 из 12] (2018) HDTVRip 720p от AniMedia | L2

0 | 0

563.79 МБ

В этой теме нет новых непрочитанных сообщений. Небесные волки: Сириус-егерь / Sirius the Jaeger [01-12 из 12] (2018) HDTVRip 720p от AniMedia | L

20 | 4

4.54 ГБ

В этой теме нет новых непрочитанных сообщений. О моём перерождении в слизь / Tensei Shitara Slime Datta Ken [01 из 24] (2018) HDTVRip 720p от AniMedia | L2

0 | 0

1.09 ГБ

В этой теме нет новых непрочитанных сообщений. Гаро: Багровая луна / Garo: Guren no Tsuki (Тамура Котаро) [TV-2] [1-13 из 24] [AnimeVost] [RAW] [RUS+JAP+SUB] [2015-2016 г., приключения, HDTVRip] [720p]

25 | 5

6.87 ГБ




Вы не можете начинать темы
Вы не можете отвечать на сообщения
Вы не можете редактировать свои сообщения
Вы не можете удалять свои сообщения
Вы не можете добавлять вложения

Перейти:  
 Вход
ppkBB3cker v.2 © 2008-2014 @ PPK
[ Time : 0.072s | 16 Queries | GZIP : Off ]

cron