img image001 image001 image001 image001 image001 image001 image001 image001 image001 image001 image001 image001 image001 image001 image001 image001

Planets Sun Sun Sun
Статистика раздачи
Автор: Снежана | Размер: 1.31 ГБ | Добавлен: 15 авг 2018
Раздают: 31    Качают: 3
Скачать торрент
Скачать торрент
Описание торрента

СообщениеДобавлено: 15 авг 2018 

Бедствие Девушки‑Зомби / Aru Zonbi Shoujo no Sainan

Перевод: Любительский (многоголосый, закадровый), Русские субтитры на надписи (Софтсаб)
Формат: WEBRip, MKV, H.264, AAC
Страна: Япония
Режиссер: Ивами Хидэаки
Жанр: мистика
Продолжительность: 01:19:42
Год выпуска: 2018
Озвучка: AniLibria — Cleo‑chan, MyAska, Arato
В ролях: Саори Хаями, Мао Итимити, Юрика Кубо, Мугихито, Юи Огура, Миюки Савасиро, Сираиси Рёко, Томокадзу Сугита, Тацухиса Судзуки
Описание: Группа не очень умных ребят прорывается на некий склад в поисках сокровищ, но находят там только два гроба с мумифицированными девушками. Внутри тела одной из девушек они находят красный камень, и так как поживиться более нечем, покидают склад. Тем временем мёртвые девушки оживают, чтобы наказать воров и вернуть свой камень назад. Смогут ли девушки‑зомби вернуть камень, а ребята получить премию «Дарвина»? Узнаете за просмотром.
Рейтинг на World-art: отсутствует

Хардсаб: отсутствует
Видео: 1280x720p (16:9), 24 fps, MPEG4 Video (H264), Main@L4 ~ 2160 kbps, 0.098bit/pixel
Аудио: [RUS]48.0KHz, AAC, 2ch, ~ 192Kbps avg
Общее
Уникальный идентификатор : 192740514286033426349733277913966125502 (0x9100790928BAB60C96213279CA2B21BE)
Полное имя : M:\aru_zonbi_shoujo_no_sainan.mkv
Формат : Matroska
Версия формата : Version 4 / Version 2
Размер файла : 1,31 Гбайт
Продолжительность : 1 ч. 19 м.
Общий поток : 2352 Кбит/сек
Дата кодирования : UTC 2018-08-10 14:41:19
Программа кодирования : mkvmerge v7.6.0 ('Garden of Dreams') 32bit built on Feb 8 2015 12:51:39
Библиотека кодирования : libebml v1.3.1 + libmatroska v1.4.2
Attachments : HATTEN.TTF / DS_Eraser2.ttf

Видео
Идентификатор : 1
Формат : AVC
Формат/Информация : Advanced Video Codec
Профиль формата : High@L4
Настройки формата : CABAC / 6 Ref Frames
Параметр CABAC формата : Да
Параметр RefFrames формата : 6 кадров
Идентификатор кодека : V_MPEG4/ISO/AVC
Продолжительность : 1 ч. 19 м.
Битрейт : 2160 Кбит/сек
Ширина : 1280 пикселей
Высота : 720 пикселей
Соотношение сторон : 16:9
Режим частоты кадров : Постоянный
Частота кадров : 24,000 кадра/сек
Цветовое пространство : YUV
Субдискретизация насыщенности : 4:2:0
Битовая глубина : 8 бит
Тип развёртки : Прогрессивная
Бит/(Пиксели*Кадры) : 0.098
Размер потока : 1,20 Гбайт (92%)
Библиотека кодирования : x264 core 142
Настройки программы : cabac=1 / ref=6 / deblock=1:1:1 / analyse=0x3:0x113 / me=umh / subme=8 / psy=1 / psy_rd=0.40:0.00 / mixed_ref=1 / me_range=16 / chroma_me=1 / trellis=1 / 8x8dct=1 / cqm=0 / deadzone=21,11 / fast_pskip=1 / chroma_qp_offset=-2 / threads=10 / lookahead_threads=1 / sliced_threads=0 / nr=0 / decimate=1 / interlaced=0 / bluray_compat=0 / constrained_intra=0 / bframes=3 / b_pyramid=2 / b_adapt=2 / b_bias=0 / direct=3 / weightb=1 / open_gop=0 / weightp=2 / keyint=48 / keyint_min=24 / scenecut=40 / intra_refresh=0 / rc_lookahead=48 / rc=crf / mbtree=1 / crf=15.0 / qcomp=0.60 / qpmin=0 / qpmax=69 / qpstep=4 / vbv_maxrate=4000 / vbv_bufsize=6000 / crf_max=0.0 / nal_hrd=none / filler=0 / ip_ratio=1.40 / aq=1:0.60
Язык : Japanese
Default : Да
Forced : Нет

Аудио
Идентификатор : 2
Формат : AAC
Формат/Информация : Advanced Audio Codec
Профиль формата : LC
Идентификатор кодека : A_AAC-2
Продолжительность : 1 ч. 19 м.
Битрейт : 192 Кбит/сек
Каналы : 2 канала
Расположение каналов : Front: L R
Частота : 48,0 КГц
Частота кадров : 46,875 кадров/сек (1024 SPF)
Метод сжатия : С потерями
Задержка видео : -83 мс.
Размер потока : 108 Мбайт (8%)
Заголовок : Клео-чан, Мяска и Арато
Язык : Russian
Default : Да
Forced : Да

Текст
Идентификатор : 3
Формат : ASS
Идентификатор кодека : S_TEXT/ASS
Идентификатор кодека/Информация : Advanced Sub Station Alpha
Продолжительность : 58 м. 42 с.
Битрейт : 1 бит/сек
ElementCount : 4
Метод сжатия : Без потерь
Размер потока : 751 байт (0%)
Заголовок : Надписи
Язык : Russian
Default : Да
Forced : Да











   Похожие торренты   Торрент   Размер 
В этой теме нет новых непрочитанных сообщений. Зомби-насильники: Похоть мертвецов 2 / Reipu zonbi: Lust of the dead 2 (2013) WEBRip | L1

752 | 97

1.36 ГБ

В этой теме нет новых непрочитанных сообщений. Музыкальные девчонки / Ongaku Shoujo [01-06 из 12] (2018) WEBRip 720p | Persona99

0 | 0

2.21 ГБ

В этой теме нет новых непрочитанных сообщений. Музыкальные Девушки / Ongaku Shoujo 720p | L1

14 | 4

399.31 МБ

В этой теме нет новых непрочитанных сообщений. Доспех: Самурай-зомби / Yoroi: Samurai zonbi (2008) DVDRip | L1

0 | 0

1.45 ГБ

В этой теме нет новых непрочитанных сообщений. Задница зомби: Туалет живых мертвецов / Zonbi asu / Zombie Ass (2011) DVDRip | L1

341 | 22

1.45 ГБ

В этой теме нет новых непрочитанных сообщений. Повелитель тьмы: Другая история мира Магия подчинения / Isekai Maou to Shoukan Shoujo no Dorei Majutsu [S01] (2018) WEBRip 720p | Persona99

17 | 9

4.71 ГБ

В этой теме нет новых непрочитанных сообщений. Зомби-насильники: Похоть мертвецов / Reipu zonbi: Lust of the dead (2012) DVDRip | L2

60 | 4

1.37 ГБ




Вы не можете начинать темы
Вы не можете отвечать на сообщения
Вы не можете редактировать свои сообщения
Вы не можете удалять свои сообщения
Вы не можете добавлять вложения

Перейти:  
 Вход
ppkBB3cker v.2 © 2008-2014 @ PPK
[ Time : 0.019s | 16 Queries | GZIP : Off ]

cron