img image001 image001 image001 image001 image001 image001 image001 image001 image001 image001 image001 image001 image001 image001 image001 image001

Planets Sun Sun Sun
Статистика раздачи
Автор: Снежана | Размер: 3.76 ГБ | Добавлен: 24 сен 2018
Раздают: 1    Качают: 1
Скачать торрент
Скачать торрент
Описание торрента

СообщениеДобавлено: 24 сен 2018 

Банановая рыба / Banana Fish


Перевод: Любительский (двухголосый, закадровый) [Anything Group]
Субтитры: Русские, ASS, [MedusaSub]
Хардсаб: отсутствует
Формат: HDTVRip, MKV, H.264, AAC
Страна: Япония
Режиссер: Уцуми Хироко
Автор оригинала: Ёсида Акими
Жанр: приключения, детектив, драма, сёдзё
Продолжительность: ТВ (24 эп.), 24 мин.
Год выпуска: 2018
Озвучка: Sad_Kit & Milirina
Работа со звуком: Sad_Kit

Студия:

Описание:
Эш Линкс 17-ти летний парень, который ухитрился к этому времени стать главарем уличных банд. В детстве, его подобрал на улице "Папа" Дино, мафиози, который растил его как своего наследника, однако попутно использовал как игрушку для своих сексуальных фантазий. Немного встав на ноги Эш не особо жалует "Папу", хотя вынужден вести с ним дела. Дома Эша ждут свои скелеты в шкафу: старший брат, который потерял рассудок в одной из горячих точек планеты, и перестрелял почти всех своих товарищей. С тех пор, он повторяет лишь одну фразу, "Банановая рыба"... Эш пытается хоть как-то понять, что происходит, и неожиданно встречает на улице умирающего человека, который передаёт ему странный предмет, и переl смертью он произносит, "Банановая рыба" В тоже самое время, в Америку прилетает фотограф со своим ассистентом, 19-ти летним парнем Эйджи Окумура, для того, чтобы взять у Эша интервью для журнала. И практически сразу Эйджи попадает в передрягу, став заложником обстоятельств.


Видео: 1280x720р (16:9), 23,976fps, AVC (x264) , ~ 1 467 kbps avg
Аудио#1: RUS -JAP, AAC, 48000 Hz, ~192 Kbps, 2 ch
Аудио#2: JAP -JAP, AAC, 48000 Hz, ~192 Kbps, 2 ch


General
Unique ID : 335977150430224066387704516765977589923 (0xFCC2D87059F578062A09A57397D2B8A3)
Complete name : Banana Fish [Anything Group]\Banana Fish - 01 [Anything Group].mkv
Format : Matroska
Format version : Version 4 / Version 2
File size : 305 MiB
Duration : 23 min 0 s
Overall bit rate : 1 853 kb/s
Encoded date : UTC 2018-08-21 10:55:30
Writing application : mkvmerge v25.0.0 ('Prog Noir') 64-bit
Writing library : libebml v1.3.6 + libmatroska v1.4.9

Video
ID : 1
Format : AVC
Format/Info : Advanced Video Codec
Format profile :
Format settings : CABAC / 4 Ref Frames
Format settings, CABAC : Yes
Format settings, ReFrames : 4 frames
Codec ID : V_MPEG4/ISO/AVC
Duration : 23 min 0 s
Bit rate : 1 467 kb/s
Width : 1 280 pixels
Height : 720 pixels
Display aspect ratio : 16:9
Frame rate mode : Constant
Frame rate : 23.976 (24000/1001) FPS
Color space : YUV
Chroma subsampling : 4:2:0
Bit depth : 8 bits
Scan type : Progressive
Bits/(Pixel*Frame) : 0.066
Stream size : 241 MiB (79%)
Writing library : x264 core 155 r2901 7d0ff22
Encoding settings : cabac=1 / ref=3 / deblock=1:0:0 / analyse=0x1:0x111 / me=hex / subme=7 / psy=1 / psy_rd=1.00:0.00 / mixed_ref=1 / me_range=16 / chroma_me=1 / trellis=1 / 8x8dct=0 / cqm=0 / deadzone=21,11 / fast_pskip=1 / chroma_qp_offset=-2 / threads=18 / lookahead_threads=3 / sliced_threads=0 / nr=0 / decimate=1 / interlaced=0 / bluray_compat=0 / constrained_intra=0 / bframes=3 / b_pyramid=2 / b_adapt=1 / b_bias=0 / direct=1 / weightb=1 / open_gop=0 / weightp=2 / keyint=240 / keyint_min=1 / scenecut=40 / intra_refresh=0 / rc_lookahead=40 / rc=crf / mbtree=1 / crf=20.0 / qcomp=0.60 / qpmin=0 / qpmax=69 / qpstep=4 / ip_ratio=1.40 / aq=1:1.50
Default : Yes
Forced : No
Color range : Limited
Color primaries : BT.709
Transfer characteristics : BT.709
Matrix coefficients : BT.709

Audio #1
ID : 2
Format : AAC
Format/Info : Advanced Audio Codec
Format profile : LC
Codec ID : A_AAC-2
Duration : 23 min 0 s
Bit rate : 192 kb/s
Channel(s) : 2 channels
Channel positions : Front: L R
Sampling rate : 48.0 kHz
Frame rate : 46.875 FPS (1024 SPF)
Compression mode : Lossy
Delay relative to video : -83 ms
Stream size : 32.1 MiB (11%)
Title : [Anything Group]
Language : Russian
Default : Yes
Forced : Yes

Audio #2
ID : 4
Format : AAC
Format/Info : Advanced Audio Codec
Format profile : LC
Codec ID : A_AAC-2
Duration : 23 min 0 s
Bit rate : 192 kb/s
Channel(s) : 2 channels
Channel positions : Front: L R
Sampling rate : 48.0 kHz
Frame rate : 46.875 FPS (1024 SPF)
Compression mode : Lossy
Delay relative to video : -83 ms
Stream size : 31.1 MiB (10%)
Title : Original
Language : Japanese
Default : No
Forced : No

Text
ID : 3
Format : ASS
Codec ID : S_TEXT/ASS
Codec ID/Info : Advanced Sub Station Alpha
Duration : 22 min 55 s
Bit rate : 1 b/s
Count of elements : 4
Compression mode : Lossless
Stream size : 212 Bytes (0%)
Title : [MedusaSub]
Language : Russian
Default : Yes
Forced : No
[/pre]


01. Идеальный день, для банановой рыбы
02. В другой стране
03. Через реку и в лес
04. На этой стороне рая
05. От смерти до утра
06. Мой потерянный город
07. Богатый мальчик
08. Банальная история
09. Спаси меня, вальс
10. Снова в Вавилоне
11. Прекрасные и проклятые
12. Иметь и не иметь






Внимание! Раздача ведётся путём добавления новых серий; при каждом добавлении создётся новый торрент. Чтобы начать докачку новой серии, пользователям необходимо сделать следующее:
(1) остановить скачивание,
(2) удалить старый торрент у себя из клиента (старые серии удалять не надо),
(3) скачать новый торрент и запустить его у себя в клиенте вместо старого, при этом указать клиенту путь в старую папку куда и должно происходить скачивание новых серий.

Ваш клиент при этом должен произвести хеширование (проверку) старой папки (если не производит сам - помогите ему сделать это), и будет докачивать только те серии которых у вас ещё нет. Старые серии при этом не удаляются, а продолжают раздаваться!

Eсли вы уже удалили старые серии, то предотвратить повторную закачку старых серий можно, отжав галочку в соответсвующих местах при запуске нового торрента. По возможности, желательно не удалять старые серии как можно дольше чтобы релизёр не столько продолжал раздавать старые серии, а смог сконцентрироваться на новых.




   Похожие торренты   Торрент   Размер 
В этой теме нет новых непрочитанных сообщений. Банановая рыба / Banana fish (Уцуми Хироко) [1-8 из 24] [Anything Group] [RAW] [RUS(int)+JAP+SUB] [2018, приключения, детектив, драма, сёдзё, HDTVRip]

2 | 0

2.54 ГБ

В этой теме нет новых непрочитанных сообщений. Банановая рыба / Banana fish (Уцуми Хироко) [1-10 из 24] [Anything Group] [RAW] [RUS(int)+JAP+SUB] [2018, приключения, детектив, драма, сёдзё, HDTVRip]

0 | 0

3.19 ГБ

В этой теме нет новых непрочитанных сообщений. Банановая рыба / Banana fish (Уцуми Хироко) [1-14 из 24] [Anything Group] [RAW] [RUS(int)+JAP+SUB] [2018, приключения, детектив, драма, сёдзё, HDTVRip]

1 | 0

4.37 ГБ

В этой теме нет новых непрочитанных сообщений. Банановая рыба / Banana fish (Уцуми Хироко) [1-7 из 24] [Anything Group] [RAW] [RUS(int)+JAP+SUB] [2018, приключения, детектив, драма, сёдзё, HDTVRip]

2 | 0

2.22 ГБ

В этой теме нет новых непрочитанных сообщений. Помогите! Я рыба / Help! I'm a Fish (Стефан Фьелдмарк, Грег Манваринг, Майкл Донован, ...) [2000, мультфильм, мюзикл, фантастика, фэнтези, драма, комедия, приключения, семейный, HDTVRip] VO

0 | 2

1.45 ГБ

В этой теме нет новых непрочитанных сообщений. Помогите! Я рыба / Hjælp, jeg er en fisk / A Fish Tale / Help! I'm a Fish (2000) DVDRip | P1

461 | 12

1.46 ГБ

В этой теме нет новых непрочитанных сообщений. Голубая рыба-бабочка OVA / B.B. Fish / Blue Butterfly Fish (1994) DVDRip-AVC | L2

26 | 4

431.5 МБ




Вы не можете начинать темы
Вы не можете отвечать на сообщения
Вы не можете редактировать свои сообщения
Вы не можете удалять свои сообщения
Вы не можете добавлять вложения

Перейти:  
 Вход
ppkBB3cker v.2 © 2008-2014 @ PPK
[ Time : 0.899s | 15 Queries | GZIP : Off ]

cron