img image001 image001 image001 image001 image001 image001 image001 image001 image001 image001 image001 image001 image001 image001 image001

Planets Sun Sun Sun

COVID-19 - Последняя информация о коронавирусе на сайте Минздрава


Статистика раздачи
Автор: Снежана | Размер: 14.97 ГБ | Добавлен: 19 июн 2020
Раздают: 0    Качают: 0
Скачать торрент
Скачать торрент
Описание торрента

СообщениеДобавлено: 19 июн 2020 

Информация о фильме
Название: Башня Бога
Название на английском: Tower of God
Оригинальное название: Kami no Tou
Год выхода: 2020
Жанр: экшен, приключения, драма, фэнтези, детектив
Режиссер: Такаси Сано
В ролях: Таити Итикава, Нобухико Окамото, Кэнта Миякэ, Саори Хаями, Хотю Оцука, Кадзуюки Окицу, Такуя Эгути, Тосинари Фукамати, Марико Хонда, Акира Сэкинэ
О фильме:
Башня бога — место, в котором сбываются мечты и разбиваются сердца, только сильный духом сможет добраться до самого верха. Именно этого всю жизнь хотела Рахиль, и Двадцать пятый Баам отправился за ней, потому как эта девушка была для него единственным лучиком света в этом мрачном и недружелюбном мире. При входе в башню больше не будет пути назад — только наверх, к новым испытаниям. Многое здесь ждёт главных героев: радость и волнения, победы и поражения, боль и утрата. Смогут ли они добраться до вершины? © Shikimori

Страна: Япония
Продолжительность: ~ 00:25:00 (серия)
Перевод: Профессиональный многоголосый (закадровый) | Crunchyroll

Файл
Формат: MKV
Кодек: MPEG-4 AVC
Качество: WEBRip 1080p
Видео: 1920x1080, ~ 8 000 kb/s, 23.976 FPS. 8 bits
Аудио #1(русский): AAC LC, ~ 128 kb/s, 2 channels, 48.0 kHz
Субтитры: отсутствуют





General
Complete name : [Fortuna.TV] Tower of God - 01 [1080p AVC AAC-RUS].mp4
Format : MPEG-4
Format profile : Base Media
Codec ID : isom (isom/iso2/avc1/mp41)
File size : 1.44 GiB
Duration : 25 min 24 s
Overall bit rate : 8 115 kb/s
Writing application : Lavf58.29.100

Video
ID : 1
Format : AVC
Format/Info : Advanced Video Codec
Format profile : High@L4
Format settings : CABAC / 4 Ref Frames
Format settings, CABAC : Yes
Format settings, Reference frames : 4 frames
Codec ID : avc1
Codec ID/Info : Advanced Video Coding
Duration : 25 min 24 s
Bit rate : 8 000 kb/s
Width : 1 920 pixels
Height : 1 080 pixels
Display aspect ratio : 16:9
Frame rate mode : Variable
Frame rate : 23.976 (24000/1001) FPS
Minimum frame rate : 23.974 FPS
Maximum frame rate : 23.981 FPS
Color space : YUV
Chroma subsampling : 4:2:0
Bit depth : 8 bits
Scan type : Progressive
Bits/(Pixel*Frame) : 0.161
Stream size : 1.42 GiB (98%)
Writing library : x264 core 142
Encoding settings : cabac=1 / ref=4 / deblock=1:1:1 / analyse=0x3:0x113 / me=umh / subme=8 / psy=1 / psy_rd=0.40:0.00 / mixed_ref=1 / me_range=16 / chroma_me=1 / trellis=1 / 8x8dct=1 / cqm=0 / deadzone=21,11 / fast_pskip=1 / chroma_qp_offset=-2 / threads=12 / lookahead_threads=2 / sliced_threads=0 / nr=0 / decimate=1 / interlaced=0 / bluray_compat=0 / constrained_intra=0 / bframes=0 / weightp=2 / keyint=96 / keyint_min=48 / scenecut=40 / intra_refresh=0 / rc_lookahead=48 / rc=2pass / mbtree=1 / bitrate=8000 / ratetol=1.0 / qcomp=0.60 / qpmin=0 / qpmax=69 / qpstep=4 / cplxblur=20.0 / qblur=0.5 / vbv_maxrate=12000 / vbv_bufsize=18000 / nal_hrd=none / filler=0 / ip_ratio=1.40 / aq=1:0.60
Codec configuration box : avcC

Audio
ID : 2
Format : AAC LC
Format/Info : Advanced Audio Codec Low Complexity
Codec ID : mp4a-40-2
Duration : 25 min 24 s
Bit rate mode : Constant
Bit rate : 128 kb/s
Channel(s) : 2 channels
Channel layout : L R
Sampling rate : 44.1 kHz
Frame rate : 43.066 FPS (1024 SPF)
Compression mode : Lossy
Stream size : 23.3 MiB (2%)
Default : Yes
Alternate group : 1



Релиз от: FortunaTV





11.06.2020 обновлено. Добавлена 10-11-я серия.

   Похожие торренты   Торрент   Размер 
В этой теме нет новых непрочитанных сообщений. Башня Бога / Kami no Tou / Tower of God [01x01-10 из 13] (2020) WEBRip 1080p | AniPlague

0 | 10

13.95 ГБ

В этой теме нет новых непрочитанных сообщений. Башня Бога / Kami no Tou / Tower of God [01x01-09 из 13] (2020) WEBRip 1080p | AniPlague

0 | 4

12.57 ГБ

В этой теме нет новых непрочитанных сообщений. Башня Бога / Kami no Tou / Tower of God [01x01-12 из 13] (2020) WEBRip 720p | AniLibria

2 | 6

8.57 ГБ

В этой теме нет новых непрочитанных сообщений. Башня Бога / Kami no Tou / Tower of God [01x01-11 из 13] (2020) WEBRip 720p | AniLibria

0 | 4

7.86 ГБ

В этой теме нет новых непрочитанных сообщений. Башня Бога / Kami no Tou [01x01-12 из 13] (2020) WEBRip 1080p | AniFilm

17 | 3

16.72 ГБ

В этой теме нет новых непрочитанных сообщений. Башня Бога / Kami no Tou [01x01-11 из 13] (2020) WEBRip 1080p | AniFilm

4 | 4

15.34 ГБ

В этой теме нет новых непрочитанных сообщений. Башня Бога / Kami no Tou [01x01-11 из 13] (2020) WEBRip 720p | AniFilm

0 | 0

7.97 ГБ




Вы не можете начинать темы
Вы не можете отвечать на сообщения
Вы не можете редактировать свои сообщения
Вы не можете удалять свои сообщения
Вы не можете добавлять вложения

Перейти:  
Контактная информация: rstracker[пёсик]yandex.ru
 Вход
ppkBB3cker v.2 © 2008-2014 @ PPK
[ Time : 0.018s | 16 Queries | GZIP : Off ]

cron