img image001 image001 image001 image001 image001 image001 image001 image001 image001 image001 image001 image001 image001 image001 image001

Planets Sun Sun Sun

COVID-19 - Последняя информация о коронавирусе на сайте Минздрава


Статистика раздачи
Автор: Снежана | Размер: 30.32 ГБ | Добавлен: 19 июн 2020
Раздают: 3    Качают: 6
Скачать торрент
Скачать торрент
Описание торрента

СообщениеДобавлено: 19 июн 2020 

Информация о фильме
Название: Грабитель
Оригинальное название: Plunderer
Год выхода: 2020
Жанр: экшен, этти, фэнтези, сёнен, комедия
Режиссеры: Хироюки Камбэ
В ролях: Honizumi Rina, Yuuki Aoi, Seki Toshihiko, Ichikawa Aoi, Itou Shizuka, Ozawa Ari, Umehara Yuuichirou, Touchi Hiroki, Nakajima Yoshiki

О фильме:
В постапокалиптическом мире будущего главными оказываются «числа», отпечатанные на теле каждого человека. Это «число» уникально для человека и означает количество чего-то в твоей жизни. Это может быть пройденное тобою расстояние или количество комплиментов, которые тебе скажут, или что угодно. «Число» может изменяться, стать больше или меньше, и человек может повлиять на это. Однако если «число» достигнет нуля, то человека затянет пучина.
Как раз это произошло с матерью главной героини. Будучи наполовину затянутой в пучину, мать поручила Хине отыскать некого Красного Барона — легендарного героя прошлого. В своих поисках Хина, прежде живущая с матерью в горах, узнаёт больше о природе и законах «чисел», и встречает много новых хороших, плохих, а иногда просто странных людей, как например, Лихта Баха.


Страна: Япония
Продолжительность: ~ 00:24:00 (серия)
Перевод: Профессиональный (многоголосый, закадровый) | StudioBand [Wakanim]

Файл
Формат: MP4
Кодек: MPEG-4 AVC
Качество: WEBRip 1080p
Видео: 1920x1080, ~ 6 057 kb/s, 23.976 FPS, 8 bits
Аудио (русский): AAC LC, ~ 320 kb/s, 2 channels, 48.0 kHz
Субтитры: отсутствуют









1-я серия

General
Complete name : Plunderer_01_RU_HD.mp4
Format : MPEG-4
Format profile : Base Media
Codec ID : isom (isom/iso2/avc1/mp41)
File size : 1.01 GiB
Duration : 22 min 40 s
Overall bit rate : 6 382 kb/s
Writing application : Lavf58.12.100

Video
ID : 1
Format : AVC
Format/Info : Advanced Video Codec
Format profile : High@L4.1
Format settings : CABAC / 4 Ref Frames
Format settings, CABAC : Yes
Format settings, Reference : 4 frames
Codec ID : avc1
Codec ID/Info : Advanced Video Coding
Duration : 22 min 40 s
Bit rate : 6 057 kb/s
Width : 1 920 pixels
Height : 1 080 pixels
Display aspect ratio : 16:9
Frame rate mode : Constant
Frame rate : 23.976 (24000/1001) FPS
Color space : YUV
Chroma subsampling : 4:2:0
Bit depth : 8 bits
Scan type : Progressive
Bits/(Pixel*Frame) : 0.122
Stream size : 982 MiB (95%)
Writing library : x264 core 155 r2901 7d0ff22
Encoding settings : cabac=1 / ref=4 / deblock=1:1:1 / analyse=0x3:0x133 / me=umh / subme=10 / psy=1 / psy_rd=0.40:0.00 / mixed_ref=1 / me_range=24 / chroma_me=1 / trellis=2 / 8x8dct=1 / cqm=0 / deadzone=21,11 / fast_pskip=1 / chroma_qp_offset=-2 / threads=24 / lookahead_threads=6 / sliced_threads=0 / nr=0 / decimate=1 / interlaced=0 / bluray_compat=0 / constrained_intra=0 / bframes=10 / b_pyramid=2 / b_adapt=2 / b_bias=0 / direct=3 / weightb=1 / open_gop=0 / weightp=2 / keyint=250 / keyint_min=23 / scenecut=40 / intra_refresh=0 / rc_lookahead=60 / rc=crf / mbtree=1 / crf=12.0 / qcomp=0.60 / qpmin=0 / qpmax=69 / qpstep=4 / ip_ratio=1.40 / aq=1:0.60
Codec configuration box : avcC

Audio
ID : 2
Format : AAC LC
Format/Info : Advanced Audio Codec Low Complexity
Codec ID : mp4a-40-2
Duration : 22 min 40 s
Duration_LastFrame : -18 ms
Bit rate mode : Constant
Bit rate : 320 kb/s
Channel(s) : 2 channels
Channel layout : L R
Sampling rate : 48.0 kHz
Frame rate : 46.875 FPS (1024 SPF)
Compression mode : Lossy
Stream size : 52.0 MiB (5%)
Default : Yes
Alternate group : 1




2-я серия.

General
Complete name : Plunderer_02_RU_HD.mp4
Format : MPEG-4
Format profile : Base Media
Codec ID : isom (isom/iso2/avc1/mp41)
File size : 1.29 GiB
Duration : 22 min 40 s
Overall bit rate : 8 174 kb/s
Writing application : Lavf58.12.100

Video
ID : 1
Format : AVC
Format/Info : Advanced Video Codec
Format profile : High@L4.1
Format settings : CABAC / 4 Ref Frames
Format settings, CABAC : Yes
Format settings, Reference : 4 frames
Codec ID : avc1
Codec ID/Info : Advanced Video Coding
Duration : 22 min 40 s
Bit rate : 7 848 kb/s
Width : 1 920 pixels
Height : 1 080 pixels
Display aspect ratio : 16:9
Frame rate mode : Constant
Frame rate : 23.976 (24000/1001) FPS
Color space : YUV
Chroma subsampling : 4:2:0
Bit depth : 8 bits
Scan type : Progressive
Bits/(Pixel*Frame) : 0.158
Stream size : 1.24 GiB (96%)
Writing library : x264 core 155 r2901 7d0ff22
Encoding settings : cabac=1 / ref=4 / deblock=1:1:1 / analyse=0x3:0x133 / me=umh / subme=10 / psy=1 / psy_rd=0.40:0.00 / mixed_ref=1 / me_range=24 / chroma_me=1 / trellis=2 / 8x8dct=1 / cqm=0 / deadzone=21,11 / fast_pskip=1 / chroma_qp_offset=-2 / threads=24 / lookahead_threads=6 / sliced_threads=0 / nr=0 / decimate=1 / interlaced=0 / bluray_compat=0 / constrained_intra=0 / bframes=10 / b_pyramid=2 / b_adapt=2 / b_bias=0 / direct=3 / weightb=1 / open_gop=0 / weightp=2 / keyint=250 / keyint_min=23 / scenecut=40 / intra_refresh=0 / rc_lookahead=60 / rc=crf / mbtree=1 / crf=11.0 / qcomp=0.60 / qpmin=0 / qpmax=69 / qpstep=4 / ip_ratio=1.40 / aq=1:0.60
Codec configuration box : avcC

Audio
ID : 2
Format : AAC LC
Format/Info : Advanced Audio Codec Low Complexity
Codec ID : mp4a-40-2
Duration : 22 min 40 s
Duration_LastFrame : -17 ms
Bit rate mode : Constant
Bit rate : 321 kb/s
Channel(s) : 2 channels
Channel layout : L R
Sampling rate : 48.0 kHz
Frame rate : 46.875 FPS (1024 SPF)
Compression mode : Lossy
Stream size : 52.0 MiB (4%)
Default : Yes
Alternate group : 1




3-я серия

General
Complete name : Plunderer_03_RU_HD.mp4
Format : MPEG-4
Format profile : Base Media
Codec ID : isom (isom/iso2/avc1/mp41)
File size : 1.08 GiB
Duration : 22 min 40 s
Overall bit rate : 6 835 kb/s
Writing application : Lavf58.12.100

Video
ID : 1
Format : AVC
Format/Info : Advanced Video Codec
Format profile : High@L4.1
Format settings : CABAC / 4 Ref Frames
Format settings, CABAC : Yes
Format settings, Reference : 4 frames
Codec ID : avc1
Codec ID/Info : Advanced Video Coding
Duration : 22 min 39 s
Bit rate : 6 509 kb/s
Width : 1 920 pixels
Height : 1 080 pixels
Display aspect ratio : 16:9
Frame rate mode : Constant
Frame rate : 23.976 (24000/1001) FPS
Color space : YUV
Chroma subsampling : 4:2:0
Bit depth : 8 bits
Scan type : Progressive
Bits/(Pixel*Frame) : 0.131
Stream size : 1.03 GiB (95%)
Writing library : x264 core 155 r2901 7d0ff22
Encoding settings : cabac=1 / ref=4 / deblock=1:1:1 / analyse=0x3:0x133 / me=umh / subme=10 / psy=1 / psy_rd=0.40:0.00 / mixed_ref=1 / me_range=24 / chroma_me=1 / trellis=2 / 8x8dct=1 / cqm=0 / deadzone=21,11 / fast_pskip=1 / chroma_qp_offset=-2 / threads=24 / lookahead_threads=6 / sliced_threads=0 / nr=0 / decimate=1 / interlaced=0 / bluray_compat=0 / constrained_intra=0 / bframes=10 / b_pyramid=2 / b_adapt=2 / b_bias=0 / direct=3 / weightb=1 / open_gop=0 / weightp=2 / keyint=250 / keyint_min=23 / scenecut=40 / intra_refresh=0 / rc_lookahead=60 / rc=crf / mbtree=1 / crf=11.0 / qcomp=0.60 / qpmin=0 / qpmax=69 / qpstep=4 / ip_ratio=1.40 / aq=1:0.60
Codec configuration box : avcC

Audio
ID : 2
Format : AAC LC
Format/Info : Advanced Audio Codec Low Complexity
Codec ID : mp4a-40-2
Duration : 22 min 40 s
Duration_LastFrame : -16 ms
Bit rate mode : Constant
Bit rate : 321 kb/s
Channel(s) : 2 channels
Channel layout : L R
Sampling rate : 48.0 kHz
Frame rate : 46.875 FPS (1024 SPF)
Compression mode : Lossy
Stream size : 52.0 MiB (5%)
Default : Yes
Alternate group : 1




4-я серия

General
Complete name : Plunderer_04_RU_HD.mp4
Format : MPEG-4
Format profile : Base Media
Codec ID : isom (isom/iso2/avc1/mp41)
File size : 1.32 GiB
Duration : 22 min 40 s
Overall bit rate : 8 324 kb/s
Writing application : Lavf58.12.100

Video
ID : 1
Format : AVC
Format/Info : Advanced Video Codec
Format profile : High@L4.1
Format settings : CABAC / 4 Ref Frames
Format settings, CABAC : Yes
Format settings, Reference : 4 frames
Codec ID : avc1
Codec ID/Info : Advanced Video Coding
Duration : 22 min 39 s
Bit rate : 7 999 kb/s
Width : 1 920 pixels
Height : 1 080 pixels
Display aspect ratio : 16:9
Frame rate mode : Constant
Frame rate : 23.976 (24000/1001) FPS
Color space : YUV
Chroma subsampling : 4:2:0
Bit depth : 8 bits
Scan type : Progressive
Bits/(Pixel*Frame) : 0.161
Stream size : 1.27 GiB (96%)
Writing library : x264 core 155 r2901 7d0ff22
Encoding settings : cabac=1 / ref=4 / deblock=1:1:1 / analyse=0x3:0x133 / me=umh / subme=10 / psy=1 / psy_rd=0.40:0.00 / mixed_ref=1 / me_range=24 / chroma_me=1 / trellis=2 / 8x8dct=1 / cqm=0 / deadzone=21,11 / fast_pskip=1 / chroma_qp_offset=-2 / threads=24 / lookahead_threads=6 / sliced_threads=0 / nr=0 / decimate=1 / interlaced=0 / bluray_compat=0 / constrained_intra=0 / bframes=10 / b_pyramid=2 / b_adapt=2 / b_bias=0 / direct=3 / weightb=1 / open_gop=0 / weightp=2 / keyint=250 / keyint_min=23 / scenecut=40 / intra_refresh=0 / rc_lookahead=60 / rc=crf / mbtree=1 / crf=11.0 / qcomp=0.60 / qpmin=0 / qpmax=69 / qpstep=4 / ip_ratio=1.40 / aq=1:0.60
Codec configuration box : avcC

Audio
ID : 2
Format : AAC LC
Format/Info : Advanced Audio Codec Low Complexity
Codec ID : mp4a-40-2
Duration : 22 min 40 s
Duration_LastFrame : -16 ms
Bit rate mode : Constant
Bit rate : 320 kb/s
Channel(s) : 2 channels
Channel layout : L R
Sampling rate : 48.0 kHz
Frame rate : 46.875 FPS (1024 SPF)
Compression mode : Lossy
Stream size : 51.9 MiB (4%)
Default : Yes
Alternate group : 1






17.06.2020 обновлено. Добавлена 23-я серия.

   Похожие торренты   Торрент   Размер 
В этой теме нет новых непрочитанных сообщений. Глейпнир / Gleipnir [01x01-11 из 13] (2020) WEBRip 1080p | StudioBand

4 | 2

6.69 ГБ

В этой теме нет новых непрочитанных сообщений. Слушатели / Listeners [01x01-10 из 12] (2020) WEBRip 1080p от FortunaTV | StudioBand

0 | 0

7.16 ГБ

В этой теме нет новых непрочитанных сообщений. Глейпнир / Gleipnir [01x01-11 из 13] (2020) WEBRip-HEVC 1080p | AniLibria, SHIZA Project, StudioBand

0 | 13

5.04 ГБ

В этой теме нет новых непрочитанных сообщений. Глейпнир / Gleipnir [01x01-12 из 13] (2020) WEBRip-HEVC 1080p | AniLibria, SHIZA Project, StudioBand

10 | 4

5.36 ГБ

В этой теме нет новых непрочитанных сообщений. Проект «Белая Кошка» / Shironeko Project: Zero Chronicle [01x01-11 из 12] (2020) WEBRip 1080p | StudioBand

0 | 4

5.32 ГБ

В этой теме нет новых непрочитанных сообщений. Литераторы и алхимики: Шестерни судей / Bungou to Alchemist: Shinpan no Haguruma [01x01-06 из 13] (2020) WEBRip 1080p | StudioBand

0 | 0

3.34 ГБ

В этой теме нет новых непрочитанных сообщений. Президент, пришло время для битвы! / Shachou, Battle no Jikan Desu! [01x01-10 из 12] (2020) WEBRip 1080p | StudioBand

0 | 0

4.53 ГБ




Вы не можете начинать темы
Вы не можете отвечать на сообщения
Вы не можете редактировать свои сообщения
Вы не можете удалять свои сообщения
Вы не можете добавлять вложения

Перейти:  
Контактная информация: rstracker[пёсик]yandex.ru
 Вход
ppkBB3cker v.2 © 2008-2014 @ PPK
[ Time : 0.040s | 18 Queries | GZIP : Off ]

cron