img image001 image001 image001 image001 image001 image001 image001 image001 image001 image001 image001 image001 image001 image001 image001

Planets Sun Sun Sun

COVID-19 - Последняя информация о коронавирусе на сайте Минздрава


Статистика раздачи
Автор: Снежана | Размер: 8.9 ГБ | Добавлен: 23 июн 2020
Раздают: 0    Качают: 4
Скачать торрент
Скачать торрент
Описание торрента

СообщениеДобавлено: 23 июн 2020 

Информация о фильме
Название: Мама-четвероклассница
Оригинальное название: Mama wa Shougaku 4 Nensei / Mama wa Shougaku Yonensei
Год выхода: 1992
Жанр: комедия, драма, фантастика, школа
Режиссер: Иути Сюдзи

О фильме:
Мидзуки Нацуми, десятилетняя девочка, собирается улететь в Лондон с родителями на ПМЖ, но родителям пришлось отправиться туда на день раньше. Когда Нацуми осталась одна, ей на голову свалилась из ниоткуда девочка-младенец, которая оказалась её дочкой, прилетевшей из будущего. Пока в будущем родители малышки разбираются, как вернуть её назад, десятилетней Нацуми приходится остаться в Японии и нянчиться с девочкой. Чтобы ей не было скучно, ей помогают пёс Бобби, а также младшая сестра Нацуминой мамы, начинающая мангака тётя Идзуми, которая ненавидит собак и детей, но вынуждена жить с ними, потому что её выгнали со съёмной квартиры за неуплату. И главное, чтобы не нарушился пространственно-временной континуум, всю историю приходится держать в секрете от окружающих, которые, как всегда, не в меру любопытны.
© Лэн, World Art

Страна: Япония
Студия: Sunrise
Продолжительность: ТВ (51 эп.), 00:24:00 мин.
Перевод: Любительский одноголосый (Persona99)

Доп. информация:
Релиз GSGroup


Качество: DVDRip
Формат видео: AVI
Видео: XviD, 640x480, 23.976 fps, 1431 Kbps, 8 bits
Аудио 1: MP3 , 192 kb/s, 48.0 KHz, 2 ch - Любительский одноголосый
Аудио 2: MP3, 192 Kbps, 48.0 KHz, 2 ch -оригинал (Японский)
Субтитры: русские, (внешние)

Семпл

General
Complete name : Mama wa Shougaku 4 Nensei�1_Mama wa Shougaku 4 Nensei.rus.jpn.avi
Format : AVI
Format/Info : Audio Video Interleave
File size : 314 MiB
Duration : 24mn 0s
Overall bit rate : 1 830 Kbps
Writing application : VirtualDubMod 1.5.10.2 (build 2540/release)
Writing library : VirtualDubMod build 2540/release
Comment : CRC32ЃF0F205046

Video
ID : 0
Format : MPEG-4 Visual
Format profile : Simple@L3
Format settings, BVOP : No
Format settings, QPel : No
Format settings, GMC : No warppoints
Format settings, Matrix : Default (H.263)
Codec ID : XVID
Codec ID/Hint : XviD
Duration : 24mn 0s
Bit rate : 1 431 Kbps
Width : 640 pixels
Height : 480 pixels
Display aspect ratio : 4:3
Frame rate : 23.976 fps
Color space : YUV
Chroma subsampling : 4:2:0
Bit depth : 8 bits
Scan type : Progressive
Compression mode : Lossy
Bits/(Pixel*Frame) : 0.194
Stream size : 246 MiB (78%)
Writing library : XviD 0.0.12 (UTC 2003-06-11)

Audio #1
ID : 1
Format : MPEG Audio
Format version : Version 1
Format profile : Layer 3
Mode : Joint stereo
Codec ID : 55
Codec ID/Hint : MP3
Duration : 24mn 0s
Bit rate mode : Constant
Bit rate : 192 Kbps
Channel(s) : 2 channels
Sampling rate : 48.0 KHz
Compression mode : Lossy
Stream size : 33.0 MiB (10%)
Alignment : Aligned on interleaves
Interleave, duration : 42 ms (1.00 video frame)
Interleave, preload duration : 504 ms

Audio #2
ID : 2
Format : MPEG Audio
Format version : Version 1
Format profile : Layer 3
Codec ID : 55
Codec ID/Hint : MP3
Duration : 24mn 0s
Bit rate mode : Constant
Bit rate : 192 Kbps
Channel(s) : 2 channels
Sampling rate : 48.0 KHz
Compression mode : Lossy
Stream size : 33.0 MiB (10%)
Alignment : Split accross interleaves
Interleave, duration : 42 ms (1.00 video frame)
Interleave, preload duration : 500 ms
Writing library : LAME3.95
Encoding settings : -m s -V 4 -q 2 -lowpass 19.5 -b 192
1. Малышка прилетела!
2. Я — мама?
3. Надо спрятать Мирай!
4. Мама — похитительница детей!
5. А кто папа Мирай?
6. Флейта хорошего настроения!
7. Это ты уходи из дома!
8. Бабушка такая классная!
9. Старшим братьям нелегко!
10. Мирай в опасности!
11. Приятно познакомиться, угощайтесь!
12. Машина времени, на старт!
13. Цирк приехал!
14. Секрет пудреницы!
15. Кем я стану через 15 лет?
16. С возвращением, мама!
17. Прости меня, Мирай!
18. С медведем за компанию
19. Погоня за Мирай
20. Я сажусь на диету
21. Секрет таинственной сумки
22. Встреча из будущего
23. Я бросаю школу!
24. Ночевать с подружками весело!
25. Новенький — Чао?
26. Надоело праздновать!
27. Мамина мама — весенний тайфун!
28. Большое приключение маленького ангела


   Похожие торренты   Торрент   Размер 
В этой теме нет новых непрочитанных сообщений. Мама-четвероклассница / Mama wa Shougaku 4 Nensei [01-26 из 51] (1992) DVDRip | L1

0 | 0

8.21 ГБ

В этой теме нет новых непрочитанных сообщений. Черная мама, белая мама / Black Mama White Mama (1973) HDRip от ExKinoRay | P2

46 | 4

743.17 МБ

В этой теме нет новых непрочитанных сообщений. Мама Кунг-фу (Королева кулака) / Kung Fu Mama aka Queen Of Fists (1973) DVDRip от ImperiaFilm | L1

0 | 0

745.57 МБ

В этой теме нет новых непрочитанных сообщений. Мама / Mama (2013) BDRip 720p от KinoGadget | iPad | D

28 | 4

1.54 ГБ

В этой теме нет новых непрочитанных сообщений. Кровавая мама / Bloody Mama (1970) HDTV 1080i | P2

10 | 1

3.87 ГБ

В этой теме нет новых непрочитанных сообщений. Нехорошая мамаша / Скверная мама / Big Bad Mama (1974) BDRip 1080p | L1

4 | 2

7.74 ГБ

В этой теме нет новых непрочитанных сообщений. Мама Кунг-фу (Королева кулака) / Kung Fu Mama aka Queen Of Fists (1973) DVD9 | Custom | L1

0 | 2

5.36 ГБ




Вы не можете начинать темы
Вы не можете отвечать на сообщения
Вы не можете редактировать свои сообщения
Вы не можете удалять свои сообщения
Вы не можете добавлять вложения

Перейти:  
Контактная информация: rstracker[пёсик]yandex.ru
 Вход
ppkBB3cker v.2 © 2008-2014 @ PPK
[ Time : 0.025s | 16 Queries | GZIP : Off ]

cron