img image001 image001 image001 image001 image001 image001 image001 image001 image001 image001 image001 image001 image001 image001 image001

Planets Sun Sun Sun

COVID-19 - Последняя информация о коронавирусе на сайте Минздрава


Статистика раздачи
Автор: Снежана | Размер: 4.36 ГБ | Добавлен: 23 июн 2020
Раздают: 34    Качают: 3
Скачать торрент
Скачать торрент
Описание торрента

СообщениеДобавлено: 23 июн 2020 

Информация о фильме
Название: Промар
Оригинальное название: Promare
Год выхода: 2019
Жанр: Аниме, мультфильм, боевик, фантастика
Страна: Япония
Переводы: Дублированный | iTunes
Продолжительность: 01:51:05
Режиссер: Хироюки Имаиси
В ролях: Кэнъити Мацуяма, Арата Фурута, Нобуюки Хияма, Тэцу Инада, Кэндо Кобаяси, Кацуюки Конъиси, Ами Косимидзу, Рикия Кояма, Таитэн Кусуноки, Масато Сакаи и др.
Роли дублировали: Александр Фильченко, Игорь Болдышев, Степан Шашкин, Николай Белоусов, Вячеслав Аринчехин.

О фильме: Гало и спасатели из пожарного департамента сталкиваются с группой мутантов, которые способны контролировать пламя и теперь угрожают всему человечеству.



Файл
Качество: BDRip 720p | Promare.2019.COMPLETE.BLURAY-HAiKU
Видео: x264, 1280x720, 4794 kbps, 24,000 fps
Звук#1: русский, AC3, 5.1 ch, 48 kHz, 384 kbps | iTunes
Звук#2: японский, AC3, 5.1 ch, 48 kHz, 448 kbps | оригинал
Субтитры: русские (полные)

Общее
Уникальный идентификатор : 250276859700125009893545969265940384792 (0xBC4991E19525926B994A9CCA131C4C18)
Полное имя : E:Torrent4PromarBDRip720p.mkv
Формат : Matroska
Версия формата : Version 4 / Version 2
Размер файла : 4,36 Гбайт
Продолжительность : 1 ч. 51 м.
Общий поток : 5625 Кбит/сек
Дата кодирования : UTC 2020-06-21 12:27:15
Программа кодирования : mkvmerge v9.5.0 ('Quiet Fire') 64bit
Библиотека кодирования : libebml v1.3.4 + libmatroska v1.4.5

Видео
Идентификатор : 1
Формат : AVC
Формат/Информация : Advanced Video Codec
Профиль формата : High@L4.1
Настройки формата : CABAC / 9 Ref Frames
Параметр CABAC формата : Да
Параметр RefFrames формата : 9 кадров
Идентификатор кодека : V_MPEG4/ISO/AVC
Продолжительность : 1 ч. 51 м.
Битрейт : 4794 Кбит/сек
Ширина : 1280 пикселей
Высота : 720 пикселей
Соотношение сторон : 16:9
Режим частоты кадров : Постоянный
Частота кадров : 24,000 кадра/сек
Цветовое пространство : YUV
Субдискретизация насыщенности : 4:2:0
Битовая глубина : 8 бит
Тип развёртки : Прогрессивная
Бит/(Пиксели*Кадры) : 0.217
Размер потока : 3,72 Гбайт (85%)
Заголовок : Sisendrovich(R)
Библиотека кодирования : x264 core 159 r2991 1771b55
Настройки программы : cabac=1 / ref=9 / deblock=1:0:0 / analyse=0x3:0x133 / me=tesa / subme=11 / psy=1 / psy_rd=1.00:0.00 / mixed_ref=1 / me_range=32 / chroma_me=1 / trellis=2 / 8x8dct=1 / cqm=0 / deadzone=21,11 / fast_pskip=0 / chroma_qp_offset=-2 / threads=22 / lookahead_threads=5 / sliced_threads=0 / nr=0 / decimate=0 / interlaced=0 / bluray_compat=0 / constrained_intra=0 / bframes=14 / b_pyramid=2 / b_adapt=2 / b_bias=0 / direct=3 / weightb=1 / open_gop=0 / weightp=2 / keyint=240 / keyint_min=23 / scenecut=40 / intra_refresh=0 / rc_lookahead=60 / rc=2pass / mbtree=0 / bitrate=4794 / ratetol=1.0 / qcomp=0.70 / qpmin=0 / qpmax=69 / qpstep=4 / cplxblur=20.0 / qblur=0.5 / vbv_maxrate=50000 / vbv_bufsize=62500 / nal_hrd=none / filler=0 / ip_ratio=1.40 / pb_ratio=1.30 / aq=3:1.00
Язык : English
Default : Да
Forced : Нет

Аудио #1
Идентификатор : 2
Формат : AC-3
Формат/Информация : Audio Coding 3
Параметр Endianness формата : Big
Идентификатор кодека : A_AC3
Продолжительность : 1 ч. 51 м.
Вид битрейта : Постоянный
Битрейт : 384 Кбит/сек
Каналы : 6 каналов
Расположение каналов : Front: L C R, Side: L R, LFE
Частота : 48,0 КГц
Частота кадров : 31,250 кадров/сек (1536 SPF)
Битовая глубина : 16 бит
Метод сжатия : С потерями
Размер потока : 305 Мбайт (7%)
Заголовок : rus
Язык : Russian
Default : Да
Forced : Нет

Аудио #2
Идентификатор : 3
Формат : AC-3
Формат/Информация : Audio Coding 3
Параметр Endianness формата : Big
Идентификатор кодека : A_AC3
Продолжительность : 1 ч. 51 м.
Вид битрейта : Постоянный
Битрейт : 448 Кбит/сек
Каналы : 6 каналов
Расположение каналов : Front: L C R, Side: L R, LFE
Частота : 48,0 КГц
Частота кадров : 31,250 кадров/сек (1536 SPF)
Битовая глубина : 16 бит
Метод сжатия : С потерями
Размер потока : 356 Мбайт (8%)
Заголовок : jap
Язык : Japanese
Default : Нет
Forced : Нет

Текст
Идентификатор : 4
Формат : UTF-8
Идентификатор кодека : S_TEXT/UTF8
Идентификатор кодека/Информация : UTF-8 Plain Text
Продолжительность : 1 ч. 45 м.
Битрейт : 86 бит/сек
ElementCount : 1256
Размер потока : 66,9 Кбайт (0%)
Заголовок : rusFull
Язык : Russian
Default : Нет
Forced : Нет

Меню
00:00:00.000 : :Chapter 01
00:04:16.250 : :Chapter 02
00:09:23.083 : :Chapter 03
00:15:04.958 : :Chapter 04
00:19:49.917 : :Chapter 05
00:24:38.750 : :Chapter 06
00:29:37.792 : :Chapter 07
00:35:07.292 : :Chapter 08
00:40:26.000 : :Chapter 09
00:44:10.500 : :Chapter 10
00:48:59.458 : :Chapter 11
00:55:11.125 : :Chapter 12
01:00:28.333 : :Chapter 13
01:04:16.542 : :Chapter 14
01:09:30.083 : :Chapter 15
01:15:08.000 : :Chapter 16
01:20:26.000 : :Chapter 17
01:25:54.292 : :Chapter 18
01:29:26.708 : :Chapter 19
01:35:25.708 : :Chapter 20
01:40:11.625 : :Chapter 21
01:45:09.000 : :Chapter 22



Рип и релиз от:

   Похожие торренты   Торрент   Размер 
В этой теме нет новых непрочитанных сообщений. Промар / Promare (2019) BDRip 1080p | iTunes

15 | 0

7.73 ГБ

В этой теме нет новых непрочитанных сообщений. Дитя погоды / Tenki no ko / Weathering With You (2019) BDRip 720p | D, P | iTunes

170 | 19

5.74 ГБ

В этой теме нет новых непрочитанных сообщений. Мстители: Финал / Avengers: Endgame (2019) BDRip 720p от Scarabey | iTunes

56 | 6

8.08 ГБ

В этой теме нет новых непрочитанных сообщений. Дитя погоды / Tenki no ko / Weathering With You (2019) BDRip 1080p | D, P | iTunes

436 | 24

9.95 ГБ

В этой теме нет новых непрочитанных сообщений. Дитя погоды / Tenki no ko / Weathering With You (2019) BDRip от Stranik | D | iTunes

26 | 0

699.91 МБ

В этой теме нет новых непрочитанных сообщений. Дитя погоды / Tenki no ko / Weathering With You (2019) BDRip 1080p от Deadmauvlad | iTunes, NewComers

0 | 0

8.17 ГБ

В этой теме нет новых непрочитанных сообщений. Дитя погоды / Tenki no ko / Weathering With You (2019) UHD BDRip-HEVC 2160p от FortunaTV | iTunes

0 | 0

9.58 ГБ




Вы не можете начинать темы
Вы не можете отвечать на сообщения
Вы не можете редактировать свои сообщения
Вы не можете удалять свои сообщения
Вы не можете добавлять вложения

Перейти:  
Контактная информация: rstracker[пёсик]yandex.ru
 Вход
ppkBB3cker v.2 © 2008-2014 @ PPK
[ Time : 0.021s | 18 Queries | GZIP : Off ]

cron