img image001 image001 image001 image001 image001 image001 image001 image001 image001 image001 image001 image001 image001 image001 image001

Planets Sun Sun Sun

COVID-19 - Последняя информация о коронавирусе на сайте Минздрава


Статистика раздачи
Автор: Снежана | Размер: 7.94 ГБ | Добавлен: 23 июн 2020
Раздают: 14    Качают: 11
Скачать торрент
Скачать торрент
Описание торрента

СообщениеДобавлено: 23 июн 2020 

Информация о фильме
Название: Маньяк азартных игр
Оригинальное название: Kakegurui
Год выхода: 2017-2019
Жанр: детектив, драма, психология, сёнэн, школа, этти
Режиссер: Хаяси Юйтиро
Автор оригинала: Кавамото Хомура
Снято по манге: Kakegurui
В главных ролях: Саори Хаями, Минами Танака, Тацуя Токутакэ, Миюки Савасиро, Ю Сэридзава, Маю Удоно, Карин Нанами, Томокадзу Сугита, Мария Исэ,Юки Вакаи

О фильме: В подавляющем большинстве школ, если вас увидят с игральными картами в руках, то как минимум по голове не погладят, а может даже попадёте на разбирательство к директору. В частной академии Хяккао дела обстоят по-другому. Причём с первого взгляда не скажешь, ведь это старинная школа, да и учатся здесь непростые детки, а из исключительно влиятельных семей. Но вместо традиций и высококлассного обучения учащимся предлагается блеснуть не академическими знаниями, а умением просчитывать, предугадывать и выигрывать. Помочь в выявлении таких навыков призваны как раз азартные игры. На победу во многом влияет сумма твоих взносов в студсовет, которая даёт преимущество. Если ты выигрываешь, значит ты на коне. А проигравших ожидает жестокое обращение и тирания со стороны победителей. Сопротивление бесполезно, иначе ситуация станет ещё хуже. Джабами Юмеко - новая ученица этой академии, но не похоже, чтобы она была напугана такой иерархией. Наоборот, настрой у неё боевой. Кажется, в академии Хяккао грядут сильные изменения!



Перевод: Профессиональный (Многоголосый закадровый) KANSAI STUDIO [S01-02]
Перевод: Любительский (Одноголосый закадровый) ХЗ lol [Спешелы 01-03]
Страна: Япония
Студия: MAPPA
Продолжительность: 24 серии x ~ 00:25:00; 03 серии x ~ 00:03:00;
Возрастное ограничение: 16+
Файл
Формат: AVI
Кодек: XviD
Качество: BDRip | [Vol.1-12 Fin] Blu-Ray Disk 191,38‬ GiB thx Neko_FeliXXX |
Видео 720x400 (16:9), 23.976 fps, 1 524 kb/s (0.221 bit/pixel)
Аудио №1: AC3, 48.0 kHz, 2 ch, 192 kb/s, CBR | | KANSAI
Аудио №2: AC3, 48.0 kHz, 2 ch, 192 kb/s, CBR | | Japan (Оригинал)
Субтитры : Русские (полный перевод)

General
Complete name : [Deadmau- RAWS] Безумный.азарт.S01.RUS.JAP.BDRip.Deadmauvlad.Ep.01.avi
Format : AVI
Format/Info : Audio Video Interleave
File size : 335 MiB
Duration : 24 min 21 s
Overall bit rate : 1 922 kb/s
Director : Encoder by Deadmauvlad
Writing application : VirtualDubMod 1.5.10.3 | www.virtualdub-fr.org || (build 2550/release)
Writing library : VirtualDubMod build 2550/release
Copyright : Encoder by Deadmauvlad

Video
ID : 0
Format : MPEG-4 Visual
Format profile : Advanced Simple@L5
Format settings : BVOP1 / Custom Matrix
Format settings, BVOP : 1
Format settings, QPel : No
Format settings, GMC : No warppoints
Format settings, Matrix : Custom
Codec ID : XVID
Codec ID/Hint : XviD
Duration : 24 min 21 s
Bit rate : 1 524 kb/s
Width : 720 pixels
Height : 400 pixels
Display aspect ratio : 16:9
Frame rate : 23.976 (24000/1001) FPS
Color space : YUV
Chroma subsampling : 4:2:0
Bit depth : 8 bits
Scan type : Progressive
Compression mode : Lossy
Bits/(Pixel*Frame) : 0.221
Stream size : 266 MiB (79%)
Writing library : XviD 73

Audio #1
ID : 1
Format : AC-3
Format/Info : Audio Coding 3
Commercial name : Dolby Digital
Codec ID : 2000
Duration : 24 min 20 s
Bit rate mode : Constant
Bit rate : 192 kb/s
Channel(s) : 2 channels
Channel layout : L R
Sampling rate : 48.0 kHz
Frame rate : 31.250 FPS (1536 SPF)
Bit depth : 16 bits
Compression mode : Lossy
Stream size : 33.4 MiB (10%)
Alignment : Split accross interleaves
Interleave, duration : 42 ms (1.00 video frame)
Interleave, preload duration : 500 ms
Audio #2
ID : 2
Format : AC-3
Format/Info : Audio Coding 3
Commercial name : Dolby Digital
Codec ID : 2000
Duration : 24 min 21 s
Bit rate mode : Constant
Bit rate : 192 kb/s
Channel(s) : 2 channels
Channel layout : L R
Sampling rate : 48.0 kHz
Frame rate : 31.250 FPS (1536 SPF)
Bit depth : 16 bits
Compression mode : Lossy
Stream size : 33.5 MiB (10%)
Alignment : Split accross interleaves
Interleave, duration : 42 ms (1.00 video frame)
Interleave, preload duration : 500 ms


S01
01. Её зовут Джабами Юмеко.
02. Унылая девица.
03. Девица с прищуром.
04. Девица, ставшая домашним скотом.
05. Девица, ставшая человеком.
06. Страстная девица.
07. Неуступчивая девица.
08. Девица, которая любит танцевать.
09. Мечтательная девица.
10. Разборчивая девица.
11. Девица, рискнувшая жизнью.
12. Девица, одержимая риском.
S02
01. Сойдём с ума от азарта!
02. Девушки клана Момобами.
03. Не трожьте эту девушку!
04. Загадочная парочка.
05. Девушка, которая меняется.
06. Звезда Голливуда.
07. Предательница.
08. Победительница.
09. Девушка, что всегда рядом.
10. Логичная девушка.
11. Девушка, что обладает ✕.
12. Девушка нуля.
Безумный азарт: Спецвыпуски 01-03


#1 Безумный азарт [ТВ-1] - ТВ (12 эп. + спэшлы), адаптация манги, 2017 ✔ (Есть в раздаче)
#2 >>>Безумный азарт [ТВ-2] - ТВ (12 эп.), продолжение, 2019 ✔ (Есть в раздаче)



ЦитатаКто-то писал:
За озвучку Kansai спасибо DS29028888


Релиз / Автор рипа: Deadmauvlad ^_^

   Похожие торренты   Торрент   Размер 
В этой теме нет новых непрочитанных сообщений. Безумный азарт / Kakegurui [01-12 из 12] (2017) HDTV 720p | L

15 | 2

4.38 ГБ

В этой теме нет новых непрочитанных сообщений. Безумный азарт. Фильм / Eiga Kakegurui (Цутому Ханабуса) [2019, детектив, драма, HDRip] MVO

0 | 0

1.37 ГБ

В этой теме нет новых непрочитанных сообщений. Лёгкий теннис / Softenni [S01+Спешлы] (2011) BDRip от Deadmauvlad | Без Цензуры

3 | 1

4.35 ГБ

В этой теме нет новых непрочитанных сообщений. Потерявшийся герой забрал девицу домой / Hagure Yuusha no Estetica [S01+Спешлы] (2012) BDRip от Deadmauvlad | WiaDub

5 | 3

4.24 ГБ

В этой теме нет новых непрочитанных сообщений. Документальный спецпроект. Ярость: этот безумный, безумный мир (Эфир от 08.02.2019) (Рен ТВ) [2019, документальный, WEB-DLRip]

4 | 0

1.47 ГБ

В этой теме нет новых непрочитанных сообщений. Фуука / Fuuka [S01] (2017) BDRip от Deadmauvlad | L2 | Без Цензуры

1 | 0

4.1 ГБ

В этой теме нет новых непрочитанных сообщений. Это безумный, безумный, безумный, безумный мир / It's a Mad, Mad, Mad, Mad World (1963) BDRip 720p от NNNB | Extended Version | A

5 | 0

11.54 ГБ




Вы не можете начинать темы
Вы не можете отвечать на сообщения
Вы не можете редактировать свои сообщения
Вы не можете удалять свои сообщения
Вы не можете добавлять вложения

Перейти:  
Контактная информация: rstracker[пёсик]yandex.ru
 Вход
ppkBB3cker v.2 © 2008-2014 @ PPK
[ Time : 0.032s | 18 Queries | GZIP : Off ]

cron