img image001 image001 image001 image001 image001 image001 image001 image001 image001 image001 image001 image001 image001 image001 image001

Planets Sun Sun Sun
Статистика раздачи
Автор: PriZraK | Размер: 3.32 ГБ | Добавлен: 27 мар 2022
Раздают: 0    Качают: 0
Скачать торрент
Скачать торрент
Описание торрента

СообщениеДобавлено: 27 мар 2022 

Детектив Конан (фильм 18): Загадка снайпера / Detective Conan Movie 18: Dimensional Sniper / Meitantei Conan: Ijigen no Sniper

Страна: Япония
Год выпуска: 2014
Жанр: приключения, детектив
Тип: Movie
Продолжительность: полнометражный фильм, 01:50:17.
Режиссер: Сидзуно Кобун
Студия: TMS Entertainment / V1Studio

Описание:
Конан и компания во время летних каникул отправляются в токийскую телевизионную башню "Небесное дерево", но на их глазах снайпер убивает человека. Неужели это проделки "Организации" или таки просто рядовое дело? Все окончательно запутывается, когда в погоню за преступником включаются Сера Масуми, Окия Субару и ФБР, а преступник продолжает убивать людей, среди которых есть и подозреваемые...

Доп. информация:
Релиз GSGroup


Качество: BDRip 1080p
Тип релиза: Без хардсаба
Формат видео: MKV
Видео: x264, 1920x1080, 23.976 fps, ~3140 Kbps, 8 bits [CalChi]
Аудио 1: AC3 48 КГц; 448 Кбит/сек, 2 ch Язык Русский (в составе контейнера) ; Озвучка: любительский одноголосый: Persona99
Аудио 2: AC3 48 КГц; 640 Кбит/сек, 6 ch Язык Японский ; Озвучка 2: оригинал
Субтитры: встроенные Язык субтитров Русский, английский ;

#01 Детектив Конан [ТВ] - ТВ (>977 эп.), адаптация манги, 19968.6
#02 Детектив Конан (фильм 01) - п/ф, The Time-Bombed Skyscraper, 19978.2
#03 Детектив Конан (фильм 02) - п/ф, The Fourteenth Target, 1998 8.2
#04 Детектив Конан (фильм 03) - п/ф, The Last Wizard of the Century, 1999 8.1
#05 Детектив Конан (фильм 04) - п/ф, Captured in Her Eyes, 20008.1
#06 Детектив Конан OVA-1 - OVA (1 эп.), Conan vs Kid vs Yaiba, 20007.6
#07 Детектив Конан (фильм 05) - п/ф, Countdown to Heaven, 20018.4
#08 Детектив Конан (фильм 06) - п/ф, The Phantom of Baker Street, 20027.7
#09 Детектив Конан OVA-2 - OVA (1 эп.), 16 Suspects, 20027.5
#10 Детектив Конан (фильм 07) - п/ф, Crossroad in the Ancient Capital, 2003 7.8
#11 Детектив Конан OVA-3 - OVA (1 эп.), Conan and Heiji and the Vanished Boy, 20037.0
#12 Детектив Конан (фильм 08) - п/ф, Magician of the Silver Sky, 20047.7
#13 Детектив Конан OVA-4 - OVA (1 эп.), Conan to Kid to Crystal Mother, 20046.9
#14 Детектив Конан (фильм 09) - п/ф, Strategy Above the Depths, 20057.7
#15 Детектив Конан OVA-5 - OVA (1 эп.), Hyouteki wa Kogoro!! Shounen, 20057.4
#16 Meitantei Conan: Conan vs Kid - Shark & Jewel - к/ф, дополнение, 20056.8
#17 Детектив Конан OVA-6 - OVA (1 эп.), Kieta Daiya o Oe! Conan & Heiji vs Kid!, 20066.9
#18 Детектив Конан (фильм 10) - п/ф, The Private Eyes' Requiem, 20067.7
#19 Meitantei Conan: Conan vs Kid - Shikkoku no Sniper - к/ф, дополнение, 2006 6.0
#20 Детектив Конан OVA-7 - OVA (1 эп.), Agasa-sensei no Chousenjou! Agasa vs Conan & Shounen Tanteidan, 20077.1
#21 Детектив Конан (фильм 11) - п/ф, Jolly Roger in the Deep Azure, 20077.7
#22 Meitantei Conan Magic File - OVA (1 эп.), нарезка ТВ-сериала, 20075.7
#23 Детектив Конан OVA-8 - OVA (1 эп.), Joshikousei Tantei Suzuki Sonoko no Jikenbo, 20087.0
#24 Детектив Конан (фильм 12) - п/ф, Full Score of Fear, 20087.7
#25 Meitantei Conan Magic File 2 - OVA (1 эп.), дополнение, 20087.2
#26 Детектив Конан (фильм 13) - п/ф, The Raven Chaser, 20098.0
#27 Meitantei Conan Magic File 3 - OVA (1 эп.), дополнение, 20097.1
#28 Детектив Конан OVA-9 - OVA (1 эп.), The Stranger of 10 Years, 20097.6
#29 Детектив Конан (фильм 14) - п/ф, The Lost Ship in the Sky, 20107.7
#30 Meitantei Conan Magic File 4 - OVA (1 эп.), дополнение, 20107.8
#31 Детектив Конан OVA-10 - OVA (1 эп.), Kid in Trap Island, 20107.7
#32 Детектив Конан (фильм 15) - п/ф, Quarter of Silence, 20117.8
#33 Detective Conan Magic File 2011 - OVA (1 эп.), дополнение, 20116.6
#34 Детектив Конан OVA-11 - OVA (1 эп.), London kara no Maru Hi Shirei, 2011
#35 Meitantei Conan vs. Wooo - Web (2 эп.), дополнение, 20116.5
#36 Детектив Конан (фильм 16) - п/ф, The Eleventh Striker, 20127.2
#37 Meitantei Conan Bonus File: Fantasista no Hana - OVA (1 эп.), дополнение, 20127.0
#38 Детектив Конан OVA-12 - OVA (1 эп.), Excalibur no Kiseki, 20126.8
#39 Детектив Конан (фильм 17) - п/ф, Private Eye in the Distant Sea, 20137.9
#40 Детектив Конан (фильм 18) - п/ф, Dimensional Sniper, 20147.1
#41 Edogawa Conan Shissou Jiken - ТВ-спэшл, дополнение, 20147.6
#42 Детектив Конан (фильм 19) - п/ф, Gouka no Himawari, 20157.1
#43 Детектив Конан (фильм 20) - п/ф, Junkoku no Nightmare, 20166.9
#44 Детектив Конан (фильм 21) - п/ф, Crimson Love Letter, 20177.1
#45 Meitantei Conan: Episode One - Chiisaku Natta Meitantei - ТВ-спэшл (1 эп.), ремейк первого эпизода ТВ-сериала, 2016
#46 Детектив Конан (фильм 22) - п/ф, Zero the Enforcer, 20187.2
#47 Детектив Конан (фильм 23) - п/ф, The Fist of Blue Sapphire, 20197.4
#48 Детектив Конан (фильм 24) - п/ф, The Scarlet Bullet, 2020
General
Unique ID : 249507719622612659731969318058775370959 (0xBBB57058FA5DD2AD99267156EC195CCF)
Complete name : Detective Conan Movie 18 - The Sniper from Another Dimension.2014.[Persona99.GSG].(BDrip.x264.1080p.AC3).rus.jpn.mkv
Format : Matroska
Format version : Version 2
File size : 3.32 GiB
Duration : 1h 50mn
Overall bit rate : 4 315 Kbps
Encoded date : UTC 2020-04-29 06:28:55
Writing application : mkvmerge v4.0.0 ('The Stars were mine') built on Jun 6 2010 16:18:42
Writing library : libebml v1.0.0 + libmatroska v1.0.0
DURATION : 01:50:16.640000000
NUMBER_OF_FRAMES : 206770
NUMBER_OF_BYTES : 529331200
_STATISTICS_WRITING_APP : mkvmerge v8.6.1 ('Flying') 64bit
_STATISTICS_WRITING_DATE_UTC : 2016-01-01 03:09:12
_STATISTICS_TAGS : BPS DURATION NUMBER_OF_FRAMES NUMBER_OF_BYTES

Video
ID : 1
Format : AVC
Format/Info : Advanced Video Codec
Format profile : High@L4.1
Format settings, CABAC : Yes
Format settings, ReFrames : 5 frames
Codec ID : V_MPEG4/ISO/AVC
Duration : 1h 50mn
Bit rate : 3 141 Kbps
Width : 1 920 pixels
Height : 1 080 pixels
Display aspect ratio : 16:9
Frame rate mode : Constant
Frame rate : 23.976 fps
Color space : YUV
Chroma subsampling : 4:2:0
Bit depth : 8 bits
Scan type : Progressive
Bits/(Pixel*Frame) : 0.063
Stream size : 2.42 GiB (73%)
Writing library : x264 core 120 r2164 da19765
Encoding settings : cabac=1 / ref=5 / deblock=1:-2:-2 / analyse=0x3:0x113 / me=umh / subme=10 / psy=0 / mixed_ref=1 / me_range=32 / chroma_me=1 / trellis=2 / 8x8dct=1 / cqm=0 / deadzone=21,11 / fast_pskip=0 / chroma_qp_offset=0 / threads=12 / sliced_threads=0 / nr=0 / decimate=0 / interlaced=0 / bluray_compat=0 / constrained_intra=0 / bframes=3 / b_pyramid=2 / b_adapt=1 / b_bias=0 / direct=1 / weightb=1 / open_gop=0 / weightp=2 / keyint=250 / keyint_min=23 / scenecut=40 / intra_refresh=0 / rc_lookahead=40 / rc=crf / mbtree=1 / crf=19.0 / qcomp=0.60 / qpmin=0 / qpmax=69 / qpstep=4 / ip_ratio=1.40 / aq=1:1.00
Default : No
Forced : No

Audio #1
ID : 2
Format : AC-3
Format/Info : Audio Coding 3
Mode extension : CM (complete main)
Format settings, Endianness : Big
Codec ID : A_AC3
Duration : 1h 50mn
Bit rate mode : Constant
Bit rate : 448 Kbps
Channel(s) : 2 channels
Channel positions : Front: L R
Sampling rate : 48.0 KHz
Bit depth : 16 bits
Compression mode : Lossy
Stream size : 353 MiB (10%)
Title : Persona99 AC3_2ch_448
Language : Russian
Default : Yes
Forced : No

Audio #2
ID : 3
Format : AC-3
Format/Info : Audio Coding 3
Mode extension : CM (complete main)
Format settings, Endianness : Big
Codec ID : A_AC3
Duration : 1h 50mn
Bit rate mode : Constant
Bit rate : 640 Kbps
Channel(s) : 6 channels
Channel positions : Front: L C R, Side: L R, LFE
Sampling rate : 48.0 KHz
Bit depth : 16 bits
Compression mode : Lossy
Stream size : 505 MiB (15%)
Title : AC3_6ch_640
Language : Japanese
Default : No
Forced : No

Text #1
ID : 4
Format : ASS
Codec ID : S_TEXT/ASS
Codec ID/Info : Advanced Sub Station Alpha
Compression mode : Lossless
Language : Russian
Default : No
Forced : No

Text #2
ID : 5
Format : UTF-8
Codec ID : S_TEXT/UTF8
Codec ID/Info : UTF-8 Plain Text
Language : English
Default : No
Forced : No


   Похожие торренты   Торрент   Размер 
В этой теме нет новых непрочитанных сообщений. Детектив Конан: Загадка снайпера / Detective Conan: Dimensional Sniper (2014) HDRip | L

0 | 0

1.5 ГБ

В этой теме нет новых непрочитанных сообщений. Детектив Конан OVA-3: Конан, Хейджи и исчезнувший мальчик / Detective Conan: Conan and Heiji and the Vanished Boy (2003) DVDRip-AVC | L

1 | 7

220.39 МБ

В этой теме нет новых непрочитанных сообщений. Детектив Конан OVA-4: Конан, Кид и Мать-Кристал! / Detective Conan: Conan and Kid and Crystal Mother (2004) DVDRip-AVC | L

1 | 1

311.39 МБ

В этой теме нет новых непрочитанных сообщений. Детектив Конан / Detective Conan TV / Meitantei Conan [501-596] (1996) HDTVRip | Persona99

0 | 0

30.58 ГБ

В этой теме нет новых непрочитанных сообщений. Детектив Конан / Detective Conan TV / Meitantei Conan [201-300] (1996) DVDR | Persona99

2 | 1

33.85 ГБ

В этой теме нет новых непрочитанных сообщений. Детектив Конан / Detective Conan TV / Meitantei Conan [501-601] (1996) HDTVRip | Persona99

0 | 0

31.67 ГБ

В этой теме нет новых непрочитанных сообщений. Детектив Конан / Detective Conan TV / Meitantei Conan [400-500] (1996) DVDRip | Persona99

0 | 0

35.11 ГБ




Вы не можете начинать темы
Вы не можете отвечать на сообщения
Вы не можете редактировать свои сообщения
Вы не можете удалять свои сообщения
Вы не можете добавлять вложения

Перейти:  
Контактная информация: rstracker[пёсик]yandex.ru
 Вход
ppkBB3cker v.2 © 2008-2014 @ PPK
[ Time : 0.027s | 19 Queries | GZIP : Off ]

cron