img image001 image001 image001 image001 image001 image001 image001 image001 image001 image001 image001 image001 image001 image001 image001

Planets Sun Sun Sun
Статистика раздачи
Автор: Снежана | Размер: 1.87 ГБ | Добавлен: 28 июл 2013
Раздают: 17    Качают: 3
Скачать торрент
Скачать торрент
Описание торрента

СообщениеДобавлено: 28 июл 2013 

#77

Информация о фильме
Оригинальное название: Golden Boy
Год выхода: 1995
Жанр: комедия, приключения
Режиссер: Китакубо Хироюки

О фильме:
Совремeннaя Япoния. 25-лeтний Оэ Кинтaрo — студент. Он незадолго до выпуска бросил Тoкийский унивeрситeт. Он колесит на своем старeньком вeлосипеде по стране, чтобы продолжать учиться, учиться и учиться… Учиться всему, чему учат: от программирования и боевых искусств до приготовления лапши и плавания. Попутно Кинтаро ухлестывает за девушками. Правда, учиться у него обычно получается гораздо лучше…



Выпущено: Япония
Продолжительность: ~28 мин.
Перевод: Профессиональный (Двухголосый) канал «MTV» + Авторский (одноголосый) - Евгений Рудой

Файл
Формат: MKV
Качество: DVDRip
Video
ID : 1
Format : AVC
Format/Info : Advanced Video Codec
Format profile : High@L5.1
Format settings, CABAC : Yes
Format settings, ReFrames : 6 frames
Muxing mode : Container profile=Unknown@5.1
Codec ID : V_MPEG4/ISO/AVC
Duration : 28mn 52s
Width : 720 pixels
Height : 480 pixels
Display aspect ratio : 1.500
Frame rate : 29.970 fps
Standard : NTSC
Resolution : 24 bits
Colorimetry : 4:2:0
Scan type : Progressive
Title : Video
Writing library : x264 core 54 svn-654
Language : Japanese

Audio #1
ID : 2
Format : MPEG Audio
Format version : Version 1
Format profile : Layer 3
Format_Settings_Mode : Joint stereo / MS Stereo
Codec ID : A_MPEG/L3
Codec ID/Hint : MP3
Duration : 28mn 54s
Bit rate mode : Constant
Bit rate : 128 Kbps
Channel(s) : 2 channels
Sampling rate : 48.0 KHz
Resolution : 16 bits
Stream size : 26.5 MiB (8%)
Title : A..Rus_MTV
Language : Russian

Audio #2
ID : 3
Format : MPEG Audio
Format version : Version 1
Format profile : Layer 3
Format_Settings_Mode : Joint stereo / MS Stereo
Codec ID : A_MPEG/L3
Codec ID/Hint : MP3
Duration : 28mn 54s
Bit rate mode : Constant
Bit rate : 128 Kbps
Channel(s) : 2 channels
Sampling rate : 48.0 KHz
Resolution : 16 bits
Stream size : 26.5 MiB (8%)
Title : B..Rus
Language : Russian

Audio #3
ID : 4
Format : AAC
Format/Info : Advanced Audio Codec
Format version : Version 4
Format profile : LC
Format settings, SBR : Yes
Format settings, PS : No
Codec ID : A_AAC
Duration : 28mn 54s
Channel(s) : 2 channels
Channel positions : L R
Sampling rate : 48.0 KHz
Resolution : 16 bits
Title : Japanese
Language : Japanese

Text
ID : 5
Format : UTF-8
Codec ID : S_TEXT/UTF8
Codec ID/Info : UTF-8 Plain Text


Скриншоты:



   Похожие торренты   Торрент   Размер 
В этой теме нет новых непрочитанных сообщений. Золотой парень / Golden Boy (1995-1996) DVDRip

41 | 7

1.39 ГБ

В этой теме нет новых непрочитанных сообщений. Золотой парень / Golden Boy / Sasurai no o-benkyô yarô [OVA] [01-06 из 06] (1995) DVDRip 720p | L2

19 | 5

1.68 ГБ

В этой теме нет новых непрочитанных сообщений. Джеймс Бонд. Агент 007: Золотой глаз / James Bond 007: Golden Eye (1995) НDRip от Scarabey

23 | 14

785.44 МБ

В этой теме нет новых непрочитанных сообщений. Джеймс Бонд. Агент 007: Золотой глаз / James Bond 007: Golden Eye (1995) НDRip от Scarabey

256 | 16

1.45 ГБ

В этой теме нет новых непрочитанных сообщений. Джеймс Бонд. Агент 007: Золотой глаз / James Bond 007: Golden Eye (1995) НDRip от Scarabey | D

35 | 7

2.17 ГБ

В этой теме нет новых непрочитанных сообщений. Золотой век / Елизавета: Золотой век / Elizabeth: The Golden Age (2007) HDRip от Scarabey | D

155 | 7

2.21 ГБ

В этой теме нет новых непрочитанных сообщений. Золотой век / Елизавета: Золотой век / Elizabeth: The Golden Age (2007) HDRip от Scarabey | D

155 | 11

1.45 ГБ




Вы не можете начинать темы
Вы не можете отвечать на сообщения
Вы не можете редактировать свои сообщения
Вы не можете удалять свои сообщения
Вы не можете добавлять вложения

Перейти:  
Для Мосгорсуда, Роскомнадзора и рекламодателей: mosgorsud-torrent[собачка]yandex.ru
 Вход
ppkBB3cker v.2 © 2008-2014 @ PPK
[ Time : 0.026s | 15 Queries | GZIP : Off ]

Торрент трекер RUTOR.IN, Не можете зайти на rutor.org? Какой новый адрес рутор? Какое зеркало рутор? Не работает rutor.org и зеркала? Тогда наш торрент специально для вас. Rutor.in неофициальное зеркало rutor. В случае если у Вас заблокирован rutor или вдруг Вы не можете на него зайти, то Вы без труда сможете скачать бесплатно и без рекламы последние новинки кино, игр, сериалов и прочего у нас, на Rutor.in. Не нужно использовать прокси, чтобы зайти на рутор, достаточно воспользоваться нашим ресурсом. Все новые фильмы, игры, сериалы, книги и музыка за 2013 и 2014 годы через торрент бесплатно. Скачивайте фильмы в хорошем качестве, игры для пк, xbox, playstation без регистрации. У нас вы найдете новые Зарубежные сериалы и Русские сериалы 2013, 2014, 2015 годов. Оставайтесь с нами, качайте любимые фильмы, игры, сериалы, книги и музыку.
cron