img image001 image001 image001 image001 image001 image001 image001 image001 image001 image001 image001 image001 image001 image001 image001

Planets Sun Sun Sun
Статистика раздачи
Автор: Снежана | Размер: 2.22 ГБ | Добавлен: 27 июл 2013
Раздают: 109    Качают: 6
Скачать торрент
Скачать торрент
Описание торрента

СообщениеДобавлено: 27 июл 2013 

Армитаж III / Armitage III




Страна: Япония
Год выпуска: 1995 г.
Жанр: киберпанк, фантастика, боевик, детектив
Тип: OVA
Продолжительность: OVA 1 - 00:47:21; OVA 2 - 00:29:38; OVA 3 - 00:28:02; OVA 4 - 00:28:45
Режиссер: Оти Хироюки
Студия: AIC


Описание: Действие происходит в будущем, когда человечество успешно освоило Марс, установив там развитое урбанистическое общество, огромную помощь в создании которого оказали биороиды так называемого 2-го поколения, живущие среди людей нормальной жизнью. Однако экономический спад привёл к резкому обострению отношений людей со "Вторыми", обвиняемыми в создавшейся безработице и прочих бедах. Всё чаще и чаще разъярённые толпы линчуют соседей-биороидов.

Именно в такой тяжёлой атмосфере в марсианскую полицию переводится с Земли детектив Силибас Росс, переживший собственную трагедию, связанную с биороидом. Нетрудно понять его отношение ко "Вторым", хотя от вида сжигаемых биороидов Силибасу явно не по себе.

Во время прибытия Росса в космопорте происходит зверское убийство известной певицы. Жестокий убийца цинично передаёт видео, где запечатлена сцена смерти от его же рук. Щекотливое дело поручают Россу и его новой напарнице, сексапильной голубоглазой хулиганке Наоми Армитаж, которой сразу приглянулся немногословный землянин. Как выясняется, Армитаж имеет к этому расследованию особый интерес...

© Алексей Фадеев, World Art


01. Electro Blood
02. Flesh and Stone
03. Heart Core
04. Bit of Love



Качество: AVC-DVDRip
Формат видео: MKV
Авторы рипа: [Exiled-Destany]

Видео кодек: x264
Видео OVA 1: 640x480, 1518 kbps, 29,97 fps, 0.165 bit/pixel
Видео OVA 2: 640x480, 1909 kbps, 29,97 fps, 0.207 bit/pixel
Видео OVA 3: 640x480, 2046 kbps, 29.97 fps, 0.222 bit/pixel
Видео OVA 4: 640x480, 1989 kbps, 29.97 fps, 0.216 bit/pixel

Аудио кодек: AC3 ACM Codec
Аудио 1: AC3 Dolby Digital, stereo/2.0 (L,R), CBR 224 kbps, 48000Hz, 48000Hz; Японский язык (внутри контейнера, воспроизведение по умолчанию);
озвучка: оригинальная
Аудио 2: AC3 Dolby Digital, stereo/2.0 (L,R), CBR 192 kbps, 48000Hz; Русский язык (внутри контейнера);
озвучка: проф. многоголосый 'MC Entertainment'

Субтитры 1: внешние, русский язык; перевод: "предварительный перевод и правка - Chip, корректировка по япоснкому и прямой превод SokillArts"
Субтитры 2: внешние, русский язык; перевод: ulsa
Субтитры 3: внешние, русский язык; перевод: "предварительный перевод и правка - Chip, корректировка по япоснкому и прямой превод SokillArts", дополнительная корректировка и вставки на места без перевода - Romych, на вставках без перевода использованы субтитры от "MC Entertainment". (используемые для просмотра по умолчанию, внешними файлами)
Субтитры 4: внешние, русский язык; перевод: ulsa (в архиве), дополнительная корректировка и вставки на места без перевода - Romych, на вставках без перевода использованы субтитры от "MC Entertainment".
Субтитры 5: внешние, английский язык


Подробные тех. данные:
General
Complete name : F:UploadArmitage III OVA_AVC-DVD-RipArmitage III OVA - 01.mkv
Format : Matroska
File size : 669 MiB
Duration : 47mn 23s
Overall bit rate : 1 973 Kbps
Encoded date : UTC 2010-08-03 06:04:07
Writing application : mkvmerge v2.9.7 ('Tenderness') built on Jul 1 2009 18:43:35
Writing library : libebml v0.7.7 + libmatroska v0.8.1

Video
ID : 1
Format : AVC
Format/Info : Advanced Video Codec
Format profile : High@L5.1
Format settings, CABAC : Yes
Format settings, ReFrames : 8 frames
Muxing mode : Container profile=Unknown@5.1
Codec ID : V_MPEG4/ISO/AVC
Duration : 47mn 23s
Bit rate : 1 518 Kbps
Nominal bit rate : 1 875 Kbps
Width : 640 pixels
Height : 480 pixels
Display aspect ratio : 4:3
Frame rate : 29.970 fps
Color space : YUV
Chroma subsampling : 4:2:0
Bit depth : 8 bits
Scan type : Progressive
Bits/(Pixel*Frame) : 0.165
Stream size : 514 MiB (77%)
Title : [Exiled-Destiny]_'Armitage III' OVA - 01: 'Electro Blood'
Writing library : x264 core 54 svn-635M
Encoding settings : cabac=1 / ref=5 / deblock=1:-1:-1 / analyse=0x3:0x133 / me=umh / subme=7 / brdo=1 / mixed_ref=1 / me_range=16 / chroma_me=1 / trellis=1 / 8x8dct=1 / cqm=0 / deadzone=21,11 / chroma_qp_offset=0 / threads=1 / nr=0 / decimate=0 / mbaff=0 / bframes=2 / b_pyramid=1 / b_adapt=1 / b_bias=0 / direct=3 / wpredb=1 / bime=1 / keyint=250 / keyint_min=25 / scenecut=40 / rc=2pass / bitrate=1875 / ratetol=1.0 / rceq='blurCplx^(1-qComp)' / qcomp=0.60 / qpmin=10 / qpmax=51 / qpstep=4 / cplxblur=20.0 / qblur=0.5 / ip_ratio=1.40 / pb_ratio=1.30
Language : Japanese

Audio #1
ID : 2
Format : AC-3
Format/Info : Audio Coding 3
Mode extension : CM (complete main)
Codec ID : A_AC3
Duration : 47mn 23s
Bit rate mode : Constant
Bit rate : 224 Kbps
Channel(s) : 2 channels
Channel positions : Front: L R
Sampling rate : 48.0 KHz
Stream size : 75.9 MiB (11%)
Title : Original
Language : Japanese

Audio #2
ID : 3
Format : AC-3
Format/Info : Audio Coding 3
Mode extension : CM (complete main)
Codec ID : A_AC3
Duration : 47mn 23s
Bit rate mode : Constant
Bit rate : 192 Kbps
Channel(s) : 2 channels
Channel positions : Front: L R
Sampling rate : 48.0 KHz
Stream size : 65.1 MiB (10%)
Title : MVO 'MC Entertainment'
Language : Russian

General
Complete name : F:UploadArmitage III OVA_AVC-DVD-RipArmitage III OVA - 02.mkv
Format : Matroska
File size : 503 MiB
Duration : 29mn 39s
Overall bit rate : 2 372 Kbps
Encoded date : UTC 2010-08-03 06:09:40
Writing application : mkvmerge v2.9.7 ('Tenderness') built on Jul 1 2009 18:43:35
Writing library : libebml v0.7.7 + libmatroska v0.8.1

Video
ID : 1
Format : AVC
Format/Info : Advanced Video Codec
Format profile : High@L5.1
Format settings, CABAC : Yes
Format settings, ReFrames : 8 frames
Muxing mode : Container profile=Unknown@5.1
Codec ID : V_MPEG4/ISO/AVC
Duration : 29mn 39s
Bit rate : 1 909 Kbps
Nominal bit rate : 2 350 Kbps
Width : 640 pixels
Height : 480 pixels
Display aspect ratio : 4:3
Frame rate : 29.970 fps
Color space : YUV
Chroma subsampling : 4:2:0
Bit depth : 8 bits
Scan type : Progressive
Bits/(Pixel*Frame) : 0.207
Stream size : 405 MiB (80%)
Title : [Exiled-Destiny]_'Armitage III' OVA - 02: ' Flesh and Stone'
Writing library : x264 core 54 svn-635M
Encoding settings : cabac=1 / ref=5 / deblock=1:-1:-1 / analyse=0x3:0x133 / me=umh / subme=7 / brdo=1 / mixed_ref=1 / me_range=16 / chroma_me=1 / trellis=1 / 8x8dct=1 / cqm=0 / deadzone=21,11 / chroma_qp_offset=0 / threads=1 / nr=0 / decimate=0 / mbaff=0 / bframes=2 / b_pyramid=1 / b_adapt=1 / b_bias=0 / direct=3 / wpredb=1 / bime=1 / keyint=250 / keyint_min=25 / scenecut=40 / rc=2pass / bitrate=2350 / ratetol=1.0 / rceq='blurCplx^(1-qComp)' / qcomp=0.60 / qpmin=10 / qpmax=51 / qpstep=4 / cplxblur=20.0 / qblur=0.5 / ip_ratio=1.40 / pb_ratio=1.30
Language : Japanese

Audio #1
ID : 2
Format : AC-3
Format/Info : Audio Coding 3
Mode extension : CM (complete main)
Codec ID : A_AC3
Duration : 29mn 39s
Bit rate mode : Constant
Bit rate : 224 Kbps
Channel(s) : 2 channels
Channel positions : Front: L R
Sampling rate : 48.0 KHz
Stream size : 47.5 MiB (9%)
Title : Original
Language : Japanese

Audio #2
ID : 3
Format : AC-3
Format/Info : Audio Coding 3
Mode extension : CM (complete main)
Codec ID : A_AC3
Duration : 29mn 39s
Bit rate mode : Constant
Bit rate : 192 Kbps
Channel(s) : 2 channels
Channel positions : Front: L R
Sampling rate : 48.0 KHz
Stream size : 40.7 MiB (8%)
Title : MVO 'MC Entertainment'
Language : Russian

General
Complete name : F:UploadArmitage III OVA_AVC-DVD-RipArmitage III OVA - 03.mkv
Format : Matroska
File size : 504 MiB
Duration : 28mn 1s
Overall bit rate : 2 512 Kbps
Encoded date : UTC 2010-08-03 06:22:30
Writing application : mkvmerge v2.9.7 ('Tenderness') built on Jul 1 2009 18:43:35
Writing library : libebml v0.7.7 + libmatroska v0.8.1

Video
ID : 1
Format : AVC
Format/Info : Advanced Video Codec
Format profile : High@L5.1
Format settings, CABAC : Yes
Format settings, ReFrames : 8 frames
Muxing mode : Container profile=Unknown@5.1
Codec ID : V_MPEG4/ISO/AVC
Duration : 28mn 1s
Bit rate : 2 046 Kbps
Nominal bit rate : 2 550 Kbps
Width : 640 pixels
Height : 480 pixels
Display aspect ratio : 4:3
Frame rate : 29.970 fps
Color space : YUV
Chroma subsampling : 4:2:0
Bit depth : 8 bits
Scan type : Progressive
Bits/(Pixel*Frame) : 0.222
Stream size : 410 MiB (81%)
Title : [Exiled-Destiny]_'Armitage III' OVA - 03: 'Heart Core'
Writing library : x264 core 54 svn-635M
Encoding settings : cabac=1 / ref=5 / deblock=1:-1:-1 / analyse=0x3:0x133 / me=umh / subme=7 / brdo=1 / mixed_ref=1 / me_range=16 / chroma_me=1 / trellis=1 / 8x8dct=1 / cqm=0 / deadzone=21,11 / chroma_qp_offset=0 / threads=1 / nr=0 / decimate=0 / mbaff=0 / bframes=2 / b_pyramid=1 / b_adapt=1 / b_bias=0 / direct=3 / wpredb=1 / bime=1 / keyint=250 / keyint_min=25 / scenecut=40 / rc=2pass / bitrate=2550 / ratetol=1.0 / rceq='blurCplx^(1-qComp)' / qcomp=0.60 / qpmin=10 / qpmax=51 / qpstep=4 / cplxblur=20.0 / qblur=0.5 / ip_ratio=1.40 / pb_ratio=1.30
Language : Japanese

Audio #1
ID : 2
Format : AC-3
Format/Info : Audio Coding 3
Mode extension : CM (complete main)
Codec ID : A_AC3
Duration : 28mn 1s
Bit rate mode : Constant
Bit rate : 224 Kbps
Channel(s) : 2 channels
Channel positions : Front: L R
Sampling rate : 48.0 KHz
Stream size : 44.9 MiB (9%)
Title : Original
Language : Japanese

Audio #2
ID : 3
Format : AC-3
Format/Info : Audio Coding 3
Mode extension : CM (complete main)
Codec ID : A_AC3
Duration : 28mn 1s
Bit rate mode : Constant
Bit rate : 192 Kbps
Channel(s) : 2 channels
Channel positions : Front: L R
Sampling rate : 48.0 KHz
Stream size : 38.5 MiB (8%)
Title : MVO 'MC Entertainment'
Language : Russian

General
Complete name : F:UploadArmitage III OVA_AVC-DVD-RipArmitage III OVA - 04.mkv
Format : Matroska
File size : 504 MiB
Duration : 28mn 41s
Overall bit rate : 2 454 Kbps
Encoded date : UTC 2010-08-03 06:26:46
Writing application : mkvmerge v2.9.7 ('Tenderness') built on Jul 1 2009 18:43:35
Writing library : libebml v0.7.7 + libmatroska v0.8.1

Video
ID : 1
Format : AVC
Format/Info : Advanced Video Codec
Format profile : High@L5.1
Format settings, CABAC : Yes
Format settings, ReFrames : 8 frames
Muxing mode : Container profile=Unknown@5.1
Codec ID : V_MPEG4/ISO/AVC
Duration : 28mn 41s
Bit rate : 1 989 Kbps
Nominal bit rate : 2 490 Kbps
Width : 640 pixels
Height : 480 pixels
Display aspect ratio : 4:3
Frame rate : 29.970 fps
Color space : YUV
Chroma subsampling : 4:2:0
Bit depth : 8 bits
Scan type : Progressive
Bits/(Pixel*Frame) : 0.216
Stream size : 408 MiB (81%)
Title : [Exiled-Destiny]_'Armitage III' OVA - 04: 'Bit of Love'
Writing library : x264 core 54 svn-635M
Encoding settings : cabac=1 / ref=5 / deblock=1:-1:-1 / analyse=0x3:0x133 / me=umh / subme=7 / brdo=1 / mixed_ref=1 / me_range=16 / chroma_me=1 / trellis=1 / 8x8dct=1 / cqm=0 / deadzone=21,11 / chroma_qp_offset=0 / threads=1 / nr=0 / decimate=0 / mbaff=0 / bframes=2 / b_pyramid=1 / b_adapt=1 / b_bias=0 / direct=3 / wpredb=1 / bime=1 / keyint=250 / keyint_min=25 / scenecut=40 / rc=2pass / bitrate=2490 / ratetol=1.0 / rceq='blurCplx^(1-qComp)' / qcomp=0.60 / qpmin=10 / qpmax=51 / qpstep=4 / cplxblur=20.0 / qblur=0.5 / ip_ratio=1.40 / pb_ratio=1.30
Language : Japanese

Audio #1
ID : 2
Format : AC-3
Format/Info : Audio Coding 3
Mode extension : CM (complete main)
Codec ID : A_AC3
Duration : 28mn 41s
Bit rate mode : Constant
Bit rate : 224 Kbps
Channel(s) : 2 channels
Channel positions : Front: L R
Sampling rate : 48.0 KHz
Stream size : 46.0 MiB (9%)
Title : Original
Language : Japanese

Audio #2
ID : 3
Format : AC-3
Format/Info : Audio Coding 3
Mode extension : CM (complete main)
Codec ID : A_AC3
Duration : 28mn 41s
Bit rate mode : Constant
Bit rate : 192 Kbps
Channel(s) : 2 channels
Channel positions : Front: L R
Sampling rate : 48.0 KHz
Stream size : 39.4 MiB (8%)
Title : MVO 'MC Entertainment'
Language : Russian



Представляю для ознакомления:



-Основа - релиз от [Exiled-Destiny]
-Не рекомендуется к просмотру лицам, не достигшим 16 лет;
-Мною было немного отредактировано описание, дабы сделать более интригующим =] ;
-Заменил английский дубляж, находящийся изначально в видео-контейнере, на русский проф. многоголосый от 'MC Entertainment';
-"MC Entertainment" ошибочно добавили подзаголовок к названию "Поли-Матрица", ибо это - 4-х эпизодная OVA не имеющее его; подзаголовок имел полнометражный анимационный фильм, являющийся компиляцией четырёх OVA, - "Armitage III: Poly-Matrix", у нас в России известен как "Полиматрица", несколько раз показан поздно ночью в эфире российского телеканала "Первый Канал" в довольно неплохом дубляже и издан на "пиратских" VHS-кассетах в паршивом авторском переводе Дольского и фальшивой обложкой, использующая дизайн от "Ghost in the Shell" c названием "Матрица";
-Дополнил и откорректировал субтитры под эти 'rip'ы, текстовой перевод отсутствовал к представлениям о следующим эпизоде (после финальных титров у первой, второй и третьей OVA), на вставках без перевода использованы субтитры от "MC Entertainment" и одна фраза из английских субтитров;
-В раздачу включил: рекламные DVD-ролики от "MC Entertainment" на "Armitage III" и "Armitage: Dual-Matrix"; трейлер к полнометражному анимационному фильму, являющийся компиляцией четырёх OVA, - "Armitage III: Poly-Matrix", в двух версиях: редакцией от "MC Entertainment" (замена текста ими - просто кошмарна!) и оригинальный американский театральный трейлер (вот там со всем - всё в порядке) и "чистый" 'opening';



В каком порядке лучше смотреть:
#1. Армитаж III - OAV (4 эп.), первое произведение цикла, 1995
#2. Армитаж: Полиматрица - п/ф, компиляция OAV Armitage III, 1996
#3. Армитаж: Двойная матрица - п/ф, продолжение, 2002


Скорость отдачи - от 50 до 100 kb/s; могу пропадать, т.к. тырнетом не я один пользуюсь; если повезёт, то может быть от 100 до 200 kb/s; еще иногда по ночам комп отрубаю, так что извиняйте заранее


Приятного Вам просмотра



   Похожие торренты   Торрент   Размер 
В этой теме нет новых непрочитанных сообщений. Армитаж III / Armitage III (1995) DVDRip-AVC by ~Romych~

0 | 5

2.64 ГБ

В этой теме нет новых непрочитанных сообщений. Армитаж III: Полиматрица / Armitage III: Poly-Matrix (1996) DVDRip-AVC by ~Romych~

38 | 10

1.75 ГБ

В этой теме нет новых непрочитанных сообщений. Финал НБА 1995 Орландо Меджик - Хьюстон Рокетс / NBA Final 1995 (Orlando Magic vs Houston Rockets) 1 игра серии (1995) TVRip

6 | 6

1.38 ГБ

В этой теме нет новых непрочитанных сообщений. Kiss - Kiss MTV Unplugged: August 9, 1995 Behind the Scenes (1995) DVDRip

15 | 10

1.67 ГБ

В этой теме нет новых непрочитанных сообщений. За облаками / Al di la delle nuvole (1995) DVDRip DVDRip by GENADIY

1 | 1

1.46 ГБ

В этой теме нет новых непрочитанных сообщений. Эйс Вентура 2 / Ace Ventura: When Nature Calls / 1995 (1995) WEB-DL 1080p от MediaClub

46 | 8

4.68 ГБ

В этой теме нет новых непрочитанных сообщений. Славянский базар 1995. Антология (1995) DVB от AND03AND

2 | 5

988.23 МБ




Вы не можете начинать темы
Вы не можете отвечать на сообщения
Вы не можете редактировать свои сообщения
Вы не можете удалять свои сообщения
Вы не можете добавлять вложения

Перейти:  
Для Мосгорсуда, Роскомнадзора и рекламодателей: mosgorsud-torrent[собачка]yandex.ru
 Вход
ppkBB3cker v.2 © 2008-2014 @ PPK
[ Time : 0.046s | 15 Queries | GZIP : Off ]

Торрент трекер RUTOR.IN, Не можете зайти на rutor.org? Какой новый адрес рутор? Какое зеркало рутор? Не работает rutor.org и зеркала? Тогда наш торрент специально для вас. Rutor.in неофициальное зеркало rutor. В случае если у Вас заблокирован rutor или вдруг Вы не можете на него зайти, то Вы без труда сможете скачать бесплатно и без рекламы последние новинки кино, игр, сериалов и прочего у нас, на Rutor.in. Не нужно использовать прокси, чтобы зайти на рутор, достаточно воспользоваться нашим ресурсом. Все новые фильмы, игры, сериалы, книги и музыка за 2013 и 2014 годы через торрент бесплатно. Скачивайте фильмы в хорошем качестве, игры для пк, xbox, playstation без регистрации. У нас вы найдете новые Зарубежные сериалы и Русские сериалы 2013, 2014, 2015 годов. Оставайтесь с нами, качайте любимые фильмы, игры, сериалы, книги и музыку.
cron