img image001 image001 image001 image001 image001 image001 image001 image001 image001 image001 image001 image001 image001 image001 image001

Planets Sun Sun Sun
Статистика раздачи
Автор: Снежана | Размер: 1.01 ГБ | Добавлен: 27 июл 2013
Раздают: 232    Качают: 18
Скачать торрент
Скачать торрент
Описание торрента

СообщениеДобавлено: 27 июл 2013 

Кайт: девочка-убийца / Kite / A カイト (1998)
______________________________________________________________________


______________________________________________________________________

Внимание: Данный фильм не рекомендуется к просмотру лицам младше 18 лет

Информация о фильме:

Название: Кайт: девочка-убийца
Оригинальное название: Kite / A カイト
Год выхода: 1998
Жанр: Криминал, Триллер, Драма, Хентай
______________________________________________________________________

Режиссер: Ясуоми Уметсу /Yasuomi Umetsu/
Сценарист: Ясуоми Уметсу /Yasuomi Umetsu/
______________________________________________________________________

Описание: Несколько лет назад девочка Сава лишилась родителей. Её опекуном становится бескомпромиссный и циничный полицейский Акаи. Но у него есть на то свои корыстные цели: он воспитывает элиту наемных убийц, очищающих общество от мрази, перед которой закон и правосудие бессильны.
Вскоре юная очаровательная Сава становится его невидимым и смертоносным оружием. Для неё нет невыполнимых заданий — мгновенно превращаясь из примерной школьницы в хладнокровного киллера, она начиняет разрывными пулями тела своих жертв, у которых нет ни шанса на выживание.
Сава всегда работает одна, поэтому появление нового напарника, ловкого и бесстрашного Обури, резко меняет ее жизнь — внезапно у нее появляется друг и новые, неведомые чувства…

Впечатляющий анимационный боевик Ясуоми Умэтсу, участвовавшего в съемках знаменитых анимэ-проектов "Акира" и "Могила светлячков", ставший сенсацией для всех поклонников брутального кино в стиле хай-тек и вдохновивший знаменитого режиссера Роба Коэна ("Три икса", "Форсаж", "Сердце дракона") на создание в скором времени высокобюджетного голливудского римейка, поражает стремительностью, непредсказуемостью и драматизмом сюжета в духе незабываемых шедевров Люка Бессона "Никита" и "Леон-профессионал". Теперь у Вас есть возможность увидеть режиссерскую версию этого масштабного зрелища, в которой секс и насилие возведены в абсолют, шокируя всех, кто впервые погружается в мрачный мир героев фильма.

______________________________________________________________________

Страна:
Выпущено: Beam Entertainment / Green Bunny
Продолжительность: 00:51:08
Перевод: Профессиональный, многоголосый /закадровый/
______________________________________________________________________



Format : Matroska
File size : 1.01 GiB
Duration : 51mn 8s
Overall bit rate : 2 831 Kbps
Encoded date : UTC 2010-07-28 13:31:34
Writing application : mkvmerge v3.1.0 ('Happy up here') built on Jan 19 2010 12:09:24
Writing library : libebml v0.7.9 + libmatroska v0.8.1

Video
ID : 2
Format : AVC
Format/Info : Advanced Video Codec
Format profile : Baseline@L3.0
Format settings, CABAC : No
Format settings, ReFrames : 1 frame
Muxing mode : Container profile=Unknown@3.0
Codec ID : V_MPEG4/ISO/AVC
Duration : 51mn 8s
Bit rate : 2 061 Kbps
Width : 640 pixels
Height : 480 pixels
Display aspect ratio : 4:3
Frame rate : 29.970 fps
Color space : YUV
Chroma subsampling : 4:2:0
Bit depth : 8 bits
Scan type : Progressive
Bits/(Pixel*Frame) : 0.224
Stream size : 734 MiB (71%)
Title : Русский
Writing library : x264 core 98 r1649 c54c47d
Encoding settings : cabac=0 / ref=1 / deblock=0:0:0 / analyse=0:0 / me=dia / subme=0 / psy=1 / psy_rd=0.00:0.00 / mixed_ref=0 / me_range=16 / chroma_me=1 / trellis=0 / 8x8dct=0 / cqm=0 / deadzone=21,11 / fast_pskip=1 / chroma_qp_offset=0 / threads=1 / sliced_threads=0 / nr=0 / decimate=1 / interlaced=0 / constrained_intra=0 / bframes=0 / weightp=0 / keyint=250 / keyint_min=25 / scenecut=0 / intra_refresh=0 / rc=2pass / mbtree=0 / bitrate=2061 / ratetol=1.0 / qcomp=0.60 / qpmin=10 / qpmax=51 / qpstep=4 / cplxblur=20.0 / qblur=0.5 / ip_ratio=1.40 / aq=0
Language : Russian

Audio #1
ID : 1
Format : AC-3
Format/Info : Audio Coding 3
Mode extension : CM (complete main)
Codec ID : A_AC3
Duration : 51mn 8s
Bit rate mode : Constant
Bit rate : 384 Kbps
Channel(s) : 6 channels
Channel positions : Front: L C R, Side: L R, LFE
Sampling rate : 48.0 KHz
Bit depth : 16 bits
Stream size : 140 MiB (14%)
Language : Russian

Audio #2
ID : 3
Format : AC-3
Format/Info : Audio Coding 3
Mode extension : CM (complete main)
Codec ID : A_AC3
Duration : 51mn 8s
Bit rate mode : Constant
Bit rate : 384 Kbps
Channel(s) : 6 channels
Channel positions : Front: L C R, Side: L R, LFE
Sampling rate : 48.0 KHz
Bit depth : 16 bits
Stream size : 140 MiB (14%)
Title : Японский
Language : Japanese

______________________________________________________________________



______________________________________________________________________

Качество: DVDRip-AVC /Исходник DVD5/
Формат: MKV
Видео кодек: x264
Аудио кодек: AC3
Видео: MPEG4 Video (H264) 640x480, 29.97fps, ~2061 Kbps, 0.22 bit/pixel
Аудио 1: 48 kHz, Dolby AC3, 6 channels, ~384.00 kbps /Многоголосый/
Аудио 2: 48 kHz, Dolby AC3, 6 channels, ~384.00 kbps /Японский/
Субтитры: Нет
Навигация по главам: Нет
______________________________________________________________________















   Похожие торренты   Торрент   Размер 
В этой теме нет новых непрочитанных сообщений. Кайт - девочка-убийца / Kite (1998) DVDRip by ZloFenix | Director's Cut

172 | 15

2.06 ГБ

В этой теме нет новых непрочитанных сообщений. Кайт: девочка-убийца / Kite / A カイト (1998) DVD5

124 | 24

4.17 ГБ

В этой теме нет новых непрочитанных сообщений. Кайт - Девочка убийца / Kite (1998) BDRip 720p от MediaClub | Sub

12 | 0

1.86 ГБ

В этой теме нет новых непрочитанных сообщений. Кайт / Kite (2014) DVDRip | D

430 | 29

745 МБ

В этой теме нет новых непрочитанных сообщений. Кайт / Kite (2014) DVDRip-AVC | D

1536 | 132

1.45 ГБ

В этой теме нет новых непрочитанных сообщений. Кайт / Kite (2014) WEB-DLRip-AVC | D

1745 | 144

1.45 ГБ

В этой теме нет новых непрочитанных сообщений. Кайт / Kite (2014) BDRip 1080p | D, A

71 | 8

5.65 ГБ




Вы не можете начинать темы
Вы не можете отвечать на сообщения
Вы не можете редактировать свои сообщения
Вы не можете удалять свои сообщения
Вы не можете добавлять вложения

Перейти:  
Для Мосгорсуда, Роскомнадзора и рекламодателей: mosgorsud-torrent[собачка]yandex.ru
 Вход
ppkBB3cker v.2 © 2008-2014 @ PPK
[ Time : 0.034s | 16 Queries | GZIP : Off ]

cron