img image001 image001 image001 image001 image001 image001 image001 image001 image001 image001 image001 image001 image001 image001 image001

Planets Sun Sun Sun
Статистика раздачи
Автор: Снежана | Размер: 282.57 МБ | Добавлен: 28 июл 2013
Раздают: 0    Качают: 3
Скачать торрент
Скачать торрент
Описание торрента

СообщениеДобавлено: 28 июл 2013 

#77

Информация об аниме
Страна: Япония
Жанр: приключения, боевые искусства
Тип: ТВ
Год выхода: 2007
Кол серий: >205 эп
Режиссер: Датэ Хаято
Продолжительность: 25 мин
Описание: В мире Наруто незаметно пролетели два года. Бывшие новички пополнили ряды опытных синоби в ранге тюнин и дзёнин. Главные герои не сидели на месте – каждый стал учеником одного из легендарных – трех великих ниндзя Конохи.

Дополнительно
Формат: avi
Разрешение: 1280x720
Субтитры: нет
Перевод любительский одноголосый: Rezan
Язык: русский

Подробней

Общее
Формат : AVI
Формат/Информация : Audio Video Interleave
Размер файла : 282 Мбайт
Продолжительность : 23 м.
Общий поток : 1700 Кбит/сек

Видео
Идентификатор : 0
Формат : MPEG-4 Visual
Профиль формата : Advanced Simple@L5
Параметр BVOP формата : Нет
Параметр QPel формата : Нет
Параметр GMC формата : Без точки перехода
Параметр матрицы формата : Default (MPEG)
Идентификатор кодека : XVID
Идентификатор кодека/Подсказка : XviD
Продолжительность : 23 м.
Битрейт : 1498 Кбит/сек
Ширина : 1280 пикс.
Высота : 720 пикс.
Соотношение сторон : 16:9
Частота кадров : 25,000 кадр/сек
Цветовое пространство : YUV
Подвыборка цветности : 4:2:0
Битовая глубина : 8 бит
Тип развёртки : Прогрессивная
Метод сжатия : С потерями
Бит/(Пиксели*Кадры) : 0.065
Размер потока : 248 Мбайт (88%)
Библиотека кодирования : XviD 1.2.1 (UTC 2008-12-04)

Аудио
Идентификатор : 1
Формат : MPEG Audio
Версия формата : Version 1
Профиль формата : Layer 3
Идентификатор кодека : 55
Идентификатор кодека/Подсказка : MP3
Продолжительность : 23 м.
Вид битрейта : Постоянный
Битрейт : 192 Кбит/сек
Канал(ы) : 2 канала(ов)
Частота : 48,0 КГц
Метод сжатия : С потерями
Размер потока : 31,8 Мбайт (11%)
Выравнивание : Разделение по промежуткам
Продолжительность промежутка : 40 мс. (1,01 видеокадр)
Библиотека кодирования : LAMELAME_MAJOR_VERSI







   Похожие торренты   Торрент   Размер 
В этой теме нет новых непрочитанных сообщений. Наруто: Ураганные хроники / Naruto: Shippuuden [200] (2011) HDTVRip

0 | 18

247.64 МБ

В этой теме нет новых непрочитанных сообщений. Наруто: Ураганные хроники / Naruto: Shippuuden [201] (2011) HDTVRip

0 | 3

277.18 МБ

В этой теме нет новых непрочитанных сообщений. Наруто Ураганные хроники / Naruto Shippuuden [331-354] (2013) HDTVRip 720p | L1

4 | 31

8.63 ГБ

В этой теме нет новых непрочитанных сообщений. Наруто Ураганные хроники / Naruto Shippuuden [331-356] (2013) HDTVRip 720p | L1

8 | 15

9.37 ГБ

В этой теме нет новых непрочитанных сообщений. Наруто Ураганные хроники / Naruto Shippuuden [331-355] (2013) HDTVRip 720p | L1

6 | 74

9.35 ГБ

В этой теме нет новых непрочитанных сообщений. Наруто Ураганные хроники / Naruto Shippuuden [331-349] (2013) HDTVRip 720p | L1

10 | 21

6.81 ГБ

В этой теме нет новых непрочитанных сообщений. Наруто Ураганные хроники / Naruto Shippuuden [331-351] (2013) HDTVRip 720p | L1

2 | 67

7.53 ГБ




Вы не можете начинать темы
Вы не можете отвечать на сообщения
Вы не можете редактировать свои сообщения
Вы не можете удалять свои сообщения
Вы не можете добавлять вложения

Перейти:  
Для Мосгорсуда, Роскомнадзора и рекламодателей: mosgorsud-torrent[собачка]yandex.ru
 Вход
ppkBB3cker v.2 © 2008-2014 @ PPK
[ Time : 0.047s | 14 Queries | GZIP : Off ]

Торрент трекер RUTOR.IN, Не можете зайти на rutor.org? Какой новый адрес рутор? Какое зеркало рутор? Не работает rutor.org и зеркала? Тогда наш торрент специально для вас. Rutor.in неофициальное зеркало rutor. В случае если у Вас заблокирован rutor или вдруг Вы не можете на него зайти, то Вы без труда сможете скачать бесплатно и без рекламы последние новинки кино, игр, сериалов и прочего у нас, на Rutor.in. Не нужно использовать прокси, чтобы зайти на рутор, достаточно воспользоваться нашим ресурсом. Все новые фильмы, игры, сериалы, книги и музыка за 2013 и 2014 годы через торрент бесплатно. Скачивайте фильмы в хорошем качестве, игры для пк, xbox, playstation без регистрации. У нас вы найдете новые Зарубежные сериалы и Русские сериалы 2013, 2014, 2015 годов. Оставайтесь с нами, качайте любимые фильмы, игры, сериалы, книги и музыку.