img image001 image001 image001 image001 image001 image001 image001 image001 image001 image001 image001 image001 image001 image001 image001 image001

Planets Sun Sun Sun
Статистика раздачи
Автор: Снежана | Размер: 534.92 МБ | Добавлен: 28 июл 2013
Раздают: 4    Качают: 2
Скачать торрент
Скачать торрент
Описание торрента

СообщениеДобавлено: 28 июл 2013 

#77

Название: Stone Sour - Audio Secrecy (Japanese Edition)
Жанр: Alternative Metal / Hard Rock / Post - grunge
Год выпуска диска: 2010
Производитель диска: Japan
Аудио кодек: FLAC
Тип рипа: tracks + .cue
Продолжительность: 01:05:17

Stone Sour — музыкальная группа из США, играющая в стиле «альтернативный металл». Её основатели — Кори Тейлор, ставший знаменитым как вокалист группы Slipknot, Джеймс Рут — гитарист Slipknot, а также её бывший барабанщик Джоел Экман ..
01. Audio Secrecy
02. Mission Statement
03. Digital (Did You Tell)
04. Say You'll Haunt Me
05. Dying
06. Let's Be Honest
07. Unfinished
08. Hesitate
09. Nylon 6/6
10. Miracles
11. Pieces
12. The Bitter End
13. Imperfect
14. Threadbare
15. Hate Not Gone (bonus track)
16. Anna (bonus track)
17. Home Again (bonus track)
Exact Audio Copy V0.99 prebeta 5 from 4. May 2009
EAC extraction logfile from 16. September 2010, 21:05
Stone Sour / Audio Secrecy
Used drive : Optiarc DVD RW AD-7191A Adapter: 4 ID: 0
Read mode : Secure
Utilize accurate stream : Yes
Defeat audio cache : Yes
Make use of C2 pointers : No
Read offset correction : 6
Overread into Lead-In and Lead-Out : No
Fill up missing offset samples with silence : Yes
Delete leading and trailing silent blocks : No
Null samples used in CRC calculations : Yes
Used interface : Native Win32 interface for Win NT & 2000
Gap handling : Appended to previous track
Used output format : User Defined Encoder
Selected bitrate : 1024 kBit/s
Quality : High
Add ID3 tag : No
Command line compressor : C:Program FilesExact Audio CopyFlacflac.exe
Additional command line options : -8 -V -T "ARTIST=%a" -T "TITLE=%t" -T "ALBUM=%g" -T "DATE=%y" -T "TRACKNUMBER=%n" -T "GENRE=%m" -T "COMMENT=EAC FLAC ?8" %s
TOC of the extracted CD
Track | Start | Length | Start sector | End sector
---------------------------------------------------------
1 | 0:00.00 | 1:43.38 | 0 | 7762
2 | 1:43.38 | 3:50.37 | 7763 | 25049
3 | 5:34.00 | 4:00.12 | 25050 | 43061
4 | 9:34.12 | 4:24.28 | 43062 | 62889
5 | 13:58.40 | 3:01.09 | 62890 | 76473
6 | 16:59.49 | 3:44.29 | 76474 | 93302
7 | 20:44.03 | 3:10.28 | 93303 | 107580
8 | 23:54.31 | 4:16.26 | 107581 | 126806
9 | 28:10.57 | 3:38.14 | 126807 | 143170
10 | 31:48.71 | 4:07.12 | 143171 | 161707
11 | 35:56.08 | 4:30.52 | 161708 | 182009
12 | 40:26.60 | 3:33.47 | 182010 | 198031
13 | 44:00.32 | 4:22.21 | 198032 | 217702
14 | 48:22.53 | 5:46.42 | 217703 | 243694
15 | 54:09.20 | 3:50.15 | 243695 | 260959
16 | 57:59.35 | 3:29.70 | 260960 | 276704
17 | 61:29.30 | 3:54.00 | 276705 | 294254
Track 1
Filename C:Documents and SettingsLEXUSMy DocumentsMy MusicStone SourAudio Secrecy (Japanese Limited Edition)�1 – Audio Secrecy.wav
Pre-gap length 0:00:02.00
Peak level 71.8 %
Track quality 100.0 %
Test CRC 7D23E2A5
Copy CRC 7D23E2A5
Track not present in AccurateRip database
Copy OK
Track 2
Filename C:Documents and SettingsLEXUSMy DocumentsMy MusicStone SourAudio Secrecy (Japanese Limited Edition)�2 – Mission Statement.wav
Peak level 100.0 %
Track quality 100.0 %
Test CRC 52CCC98F
Copy CRC 52CCC98F
Track not present in AccurateRip database
Copy OK
Track 3
Filename C:Documents and SettingsLEXUSMy DocumentsMy MusicStone SourAudio Secrecy (Japanese Limited Edition)�3 – Digital (Did You Tell).wav
Peak level 97.7 %
Track quality 100.0 %
Test CRC D17DECA0
Copy CRC D17DECA0
Track not present in AccurateRip database
Copy OK
Track 4
Filename C:Documents and SettingsLEXUSMy DocumentsMy MusicStone SourAudio Secrecy (Japanese Limited Edition)�4 – Say You'll Haunt Me.wav
Peak level 97.7 %
Track quality 100.0 %
Test CRC 7FE485CF
Copy CRC 7FE485CF
Track not present in AccurateRip database
Copy OK
Track 5
Filename C:Documents and SettingsLEXUSMy DocumentsMy MusicStone SourAudio Secrecy (Japanese Limited Edition)�5 – Dying.wav
Peak level 97.7 %
Track quality 100.0 %
Test CRC CEB6A0C5
Copy CRC CEB6A0C5
Track not present in AccurateRip database
Copy OK
Track 6
Filename C:Documents and SettingsLEXUSMy DocumentsMy MusicStone SourAudio Secrecy (Japanese Limited Edition)�6 – Let's Be Honest.wav
Peak level 97.7 %
Track quality 100.0 %
Test CRC 9C5DF8CF
Copy CRC 9C5DF8CF
Track not present in AccurateRip database
Copy OK
Track 7
Filename C:Documents and SettingsLEXUSMy DocumentsMy MusicStone SourAudio Secrecy (Japanese Limited Edition)�7 – Unfinished.wav
Peak level 97.7 %
Track quality 100.0 %
Test CRC 6B890273
Copy CRC 6B890273
Track not present in AccurateRip database
Copy OK
Track 8
Filename C:Documents and SettingsLEXUSMy DocumentsMy MusicStone SourAudio Secrecy (Japanese Limited Edition)�8 – Hesitate.wav
Peak level 100.0 %
Track quality 99.9 %
Test CRC 3FB3BF02
Copy CRC 3FB3BF02
Track not present in AccurateRip database
Copy OK
Track 9
Filename C:Documents and SettingsLEXUSMy DocumentsMy MusicStone SourAudio Secrecy (Japanese Limited Edition)�9 – Nylon 6,6.wav
Peak level 97.7 %
Track quality 100.0 %
Test CRC 7E80243F
Copy CRC 7E80243F
Track not present in AccurateRip database
Copy OK
Track 10
Filename C:Documents and SettingsLEXUSMy DocumentsMy MusicStone SourAudio Secrecy (Japanese Limited Edition)10 – Miracles.wav
Peak level 97.7 %
Track quality 100.0 %
Test CRC DF6E26AA
Copy CRC DF6E26AA
Track not present in AccurateRip database
Copy OK
Track 11
Filename C:Documents and SettingsLEXUSMy DocumentsMy MusicStone SourAudio Secrecy (Japanese Limited Edition)11 – Pieces.wav
Peak level 97.7 %
Track quality 100.0 %
Test CRC 4DF37C45
Copy CRC 4DF37C45
Track not present in AccurateRip database
Copy OK
Track 12
Filename C:Documents and SettingsLEXUSMy DocumentsMy MusicStone SourAudio Secrecy (Japanese Limited Edition)12 – The Bitter End.wav
Peak level 97.7 %
Track quality 100.0 %
Test CRC F691ADDD
Copy CRC F691ADDD
Track not present in AccurateRip database
Copy OK
Track 13
Filename C:Documents and SettingsLEXUSMy DocumentsMy MusicStone SourAudio Secrecy (Japanese Limited Edition)13 – Imperfect.wav
Peak level 97.7 %
Track quality 100.0 %
Test CRC DC31EEF3
Copy CRC DC31EEF3
Track not present in AccurateRip database
Copy OK
Track 14
Filename C:Documents and SettingsLEXUSMy DocumentsMy MusicStone SourAudio Secrecy (Japanese Limited Edition)14 – Threadbare.wav
Peak level 97.7 %
Track quality 100.0 %
Test CRC 7E926582
Copy CRC 7E926582
Track not present in AccurateRip database
Copy OK
Track 15
Filename C:Documents and SettingsLEXUSMy DocumentsMy MusicStone SourAudio Secrecy (Japanese Limited Edition)15 – Hate Not Gone.wav
Peak level 97.7 %
Track quality 100.0 %
Test CRC 5EF45CDD
Copy CRC 5EF45CDD
Track not present in AccurateRip database
Copy OK
Track 16
Filename C:Documents and SettingsLEXUSMy DocumentsMy MusicStone SourAudio Secrecy (Japanese Limited Edition)16 – Anna.wav
Peak level 97.7 %
Track quality 100.0 %
Test CRC 33C379E1
Copy CRC 33C379E1
Track not present in AccurateRip database
Copy OK
Track 17
Filename C:Documents and SettingsLEXUSMy DocumentsMy MusicStone SourAudio Secrecy (Japanese Limited Edition)17 – Home Again.wav
Peak level 97.7 %
Track quality 100.0 %
Test CRC BE1A8604
Copy CRC BE1A8604
Track not present in AccurateRip database
Copy OK
None of the tracks are present in the AccurateRip database
No errors occurred
End of status report



   Похожие торренты   Торрент   Размер 
В этой теме нет новых непрочитанных сообщений. Stone Sour - Meanwhile In Burbank... (2015) MP3

167 | 6

64.54 МБ

В этой теме нет новых непрочитанных сообщений. Phil Collins - Audio Fidelity 24 KT + Gold (4CD) (2010-2012) FLAC

0 | 0

1.47 ГБ

В этой теме нет новых непрочитанных сообщений. Stone Of Souls 2: Stone Parts (2015) Android

34 | 1

89.11 МБ

В этой теме нет новых непрочитанных сообщений. Angie Stone - Dream (2015) FLAC

45 | 10

241.1 МБ

В этой теме нет новых непрочитанных сообщений. VA - LINN: Super Audio Collection Vol. 8 (2015) FLAC | 24-bit

115 | 35

2.01 ГБ

В этой теме нет новых непрочитанных сообщений. Hour Of Penance - Cast The First Stone (2017) FLAC

4 | 0

268.07 МБ

В этой теме нет новых непрочитанных сообщений. Joss Stone - Water For Your Soul (2015) FLAC

70 | 7

418.49 МБ




Вы не можете начинать темы
Вы не можете отвечать на сообщения
Вы не можете редактировать свои сообщения
Вы не можете удалять свои сообщения
Вы не можете добавлять вложения

Перейти:  
 Вход
ppkBB3cker v.2 © 2008-2014 @ PPK
[ Time : 0.042s | 15 Queries | GZIP : Off ]

cron