img image001 image001 image001 image001 image001 image001 image001 image001 image001 image001 image001 image001 image001 image001 image001 image001

Planets Sun Sun Sun
Статистика раздачи
Автор: Снежана | Размер: 247.16 МБ | Добавлен: 28 июл 2013
Раздают: 1    Качают: 2
Скачать торрент
Скачать торрент
Описание торрента

СообщениеДобавлено: 28 июл 2013 

#77


Название: Прекрасное далёко
Исполнитель: Приключения Электроников
Год: 2001
Жанр: ska-punk, pop-punk
Страна: Россия

Продолжительность: 00:33:03
Формат/Кодек: FLAC (image + .cue)
Битрейт аудио: lossless

Официальный сайт

01. Лесной олень (3:18)
02. Если с другом вышел в путь (2:23)
03. Крылатые качели (3:10)
04. От улыбки (3:03)
05. 33 коровы (2:05)
06. Неуловимые мстители (Погоня) (1:21)
07. Облака - белогривые лошадки (2:02)
08. Песня Красной Шапочки (2:40)
09. Прекрасное далёко (1:38)
10. Заводные игрушки (1:47)
11. Зурбаган (2:30)
12. Спят усталые игрушки (3:08)
13. До свидания, Москва (3:59)
Exact Audio Copy V0.99 prebeta 4 from 23. January 2008

Отчёт EAC об извлечении, выполненном 6. октября 2009, 19:53

Приключения Электроников / Прекрасное далёко

Дисковод: ASUS DRW-1814BL Adapter: 1 ID: 0

Режим чтения : Достоверность
Использование точного потока : Да
Отключение кэша аудио : Да
Использование указателей C2 : Нет

Коррекция смещения при чтении : 6
Способность читать области Lead-in и Lead-out : Нет
Заполнение пропущенных сэмплов тишиной : Да
Удаление блоков с тишиной в начале и конце : Нет
При вычислениях CRC использовались нулевые сэмплы : Да
Интерфейс : Встроенный Win32-интерфейс для Win NT/2000

Выходной формат : Внутренние WAV-операции
Формат сэмплов : 44.100 Гц; 16 бит; стерео
TOC извлечённого CD

Трек | Старт | Длительность | Начальный сектор | Конечный сектор
---------------------------------------------------------------------
1 | 0:00.00 | 3:17.39 | 0 | 14813
2 | 3:17.39 | 2:23.24 | 14814 | 25562
3 | 5:40.63 | 3:09.41 | 25563 | 39778
4 | 8:50.29 | 3:02.42 | 39779 | 53470
5 | 11:52.71 | 2:05.00 | 53471 | 62845
6 | 13:57.71 | 1:21.08 | 62846 | 68928
7 | 15:19.04 | 2:02.24 | 68929 | 78102
8 | 17:21.28 | 2:39.67 | 78103 | 90094
9 | 20:01.20 | 1:38.27 | 90095 | 97471
10 | 21:39.47 | 1:47.11 | 97472 | 105507
11 | 23:26.58 | 2:29.46 | 105508 | 116728
12 | 25:56.29 | 3:07.59 | 116729 | 130812
13 | 29:04.13 | 3:58.71 | 130813 | 148733
Характеристики диапазона извлечения и сообщения об ошибках

Выбранный диапазон

Имя файла E:МУЗЫКА 2_lossless в dvd-r_СВОИ ПРОЕКТЫПРИКЛЮЧЕНИЯ ЭЛЕКТРОНИКОВ - Прекрасное далёко - 2001Приключения Электроников - Прекрасное далёко.wav

Пиковый уровень 93.1 %
Качество диапазона 100.0 %
CRC копии 01E1BA9D
Копирование... OK

Ошибок не произошло
AccurateRip: сводка
Трек 1 точность не определена (достоверность 2) [5B142949], AccurateRip вернул [84E5FB83]
Трек 2 точность не определена (достоверность 2) [A8083F54], AccurateRip вернул [AA88F790]
Трек 3 точность не определена (достоверность 2) [AC55A641], AccurateRip вернул [5E86577A]
Трек 4 точность не определена (достоверность 2) [CE6E02B5], AccurateRip вернул [627C480E]
Трек 5 точность не определена (достоверность 2) [2C7A431D], AccurateRip вернул [CED7477B]
Трек 6 точность не определена (достоверность 2) [A1BD4F25], AccurateRip вернул [5E09FA53]
Трек 7 точность не определена (достоверность 2) [FDBD248B], AccurateRip вернул [5AE9DE36]
Трек 8 точность не определена (достоверность 2) [59386470], AccurateRip вернул [28C72D35]
Трек 9 точность не определена (достоверность 2) [4DBD94E7], AccurateRip вернул [59EF8B11]
Трек 10 точность не определена (достоверность 2) [C8971ABC], AccurateRip вернул [DB13DA9F]
Трек 11 точность не определена (достоверность 2) [C851FD9F], AccurateRip вернул [690978FD]
Трек 12 точность не определена (достоверность 2) [B19CB651], AccurateRip вернул [BC30D41B]
Трек 13 точность не определена (достоверность 2) [E8AA9B6E], AccurateRip вернул [0DA1AEFA]
Ни один трек не прошёл проверки на точность
В вашей базе может быть иной вариант штамповки диска

Конец отчёта
AUDIOCHECKER v2.0 beta (build 457) - by Dester - opdester@freemail.hu
~~~~~~~~~~~~~~~~~~~~~~~~~~~~~~~~~~
-=== НЕ РЕДАКТИРУЙТЕ ЭТОТ ФАЙЛ! ===-

Путь: ...Приключения Электроников - 2001 - Прекрасное далёко

1 -=- Приключения Электроников - Прекрасное далёко.flac -=- CDDA (100%)

44097780
[CUETools log; Date: 19.10.2010 09:02:42; Version: 2.0.9]
[CTDB TOCID: it8ZBTXauVCHGcXYUKTuzQyOkMc-] disk not present in database.
[AccurateRip ID: 000fc298-009ad484-9907bf0d] found.
Track [ CRC ] Status
01 [5b142949] (2/6) Accurately ripped
02 [a8083f54] (2/6) Accurately ripped
03 [ac55a641] (2/6) Accurately ripped
04 [ce6e02b5] (2/6) Accurately ripped
05 [2c7a431d] (2/6) Accurately ripped
06 [a1bd4f25] (2/6) Accurately ripped
07 [fdbd248b] (2/6) Accurately ripped
08 [59386470] (2/6) Accurately ripped
09 [4dbd94e7] (2/6) Accurately ripped
10 [c8971abc] (2/6) Accurately ripped
11 [c851fd9f] (2/6) Accurately ripped
12 [b19cb651] (2/6) Accurately ripped
13 [e8aa9b6e] (2/6) Accurately ripped
Offsetted by -1328:
01 [6824caae] (2/6) Accurately ripped
02 [96fbe59f] (2/6) Accurately ripped
03 [661636a5] (2/6) Accurately ripped
04 [bcc682f1] (2/6) Accurately ripped
05 [09ce0d6b] (2/6) Accurately ripped
06 [47ff9bee] (2/6) Accurately ripped
07 [d02f2da5] (2/6) Accurately ripped
08 [0d4477e6] (2/6) Accurately ripped
09 [3898ec1e] (2/6) Accurately ripped
10 [5cb1c55a] (2/6) Accurately ripped
11 [d03db4f2] (2/6) Accurately ripped
12 [264646a1] (2/6) Accurately ripped
13 [53765c0a] (2/6) Accurately ripped
Offsetted by -664:
01 [84e5fb83] (2/6) Accurately ripped
02 [aa88f790] (2/6) Accurately ripped
03 [5e86577a] (2/6) Accurately ripped
04 [627c480e] (2/6) Accurately ripped
05 [ced7477b] (2/6) Accurately ripped
06 [5e09fa53] (2/6) Accurately ripped
07 [5ae9de36] (2/6) Accurately ripped
08 [28c72d35] (2/6) Accurately ripped
09 [59ef8b11] (2/6) Accurately ripped
10 [db13da9f] (2/6) Accurately ripped
11 [690978fd] (2/6) Accurately ripped
12 [bc30d41b] (2/6) Accurately ripped
13 [0da1aefa] (2/6) Accurately ripped

Track Peak [ CRC32 ] [W/O NULL] [ LOG ]
-- 93,1 [01E1BA9D] [ECB0CA6B] CRC32
01 93,1 [949F6EEF] [8ACEFEC8]
02 93,1 [E09A93E5] [7074238F]
03 93,1 [FA1008DC] [4877F6A6]
04 93,1 [6833BD8C] [5E961A0C]
05 93,1 [FE2625C2] [4D6730FA]
06 93,1 [EBD5B5A6] [51ED3224]
07 93,1 [C74421C9] [9B75F302]
08 93,1 [8F16EBC6] [EC6A90A2]
09 93,1 [296F32B0] [5453720C]
10 93,1 [4ABFD349] [AE52D6B3]
11 93,1 [A9F2BC49] [BA0D6518]
12 93,1 [76025BBB] [0883E747]
13 93,1 [CE3590C4] [08B9E7EC]




   Похожие торренты   Торрент   Размер 
В этой теме нет новых непрочитанных сообщений. Трио 'Меридиан' - Прекрасное далёко (2001) APE

17 | 1

381.64 МБ

В этой теме нет новых непрочитанных сообщений. Трио 'Меридиан' - Прекрасное далёко (2001) MP3

41 | 2

150.22 МБ

В этой теме нет новых непрочитанных сообщений. Только у нас: Евгений Крылатов "Прекрасное далеко" (2014) SATRip от Generalfilm

2 | 2

350.31 МБ

В этой теме нет новых непрочитанных сообщений. Приключения Электроников - Мечты сбываются (2015) Mp3

722 | 39

75.52 МБ

В этой теме нет новых непрочитанных сообщений. Далеко-далеко / Далёкая страна / Far and Away (1992) BDRip 720p от Leonardo and Scarabey

96 | 38

2.98 ГБ

В этой теме нет новых непрочитанных сообщений. Далеко-далеко / Далекая страна / Far and Away (1992) BDRip 720p от MediaClub | P, P2, A

88 | 47

9.65 ГБ

В этой теме нет новых непрочитанных сообщений. Далеко-далеко (Далекая страна) / Far and Away (1992) BDRip 1080p от NNNB | P,P2,A

76 | 47

11.54 ГБ




Вы не можете начинать темы
Вы не можете отвечать на сообщения
Вы не можете редактировать свои сообщения
Вы не можете удалять свои сообщения
Вы не можете добавлять вложения

Перейти:  
 Вход
ppkBB3cker v.2 © 2008-2014 @ PPK
[ Time : 0.830s | 18 Queries | GZIP : Off ]

cron