img image001 image001 image001 image001 image001 image001 image001 image001 image001 image001 image001 image001 image001 image001 image001 image001

Planets Sun Sun Sun
Статистика раздачи
Автор: Снежана | Размер: 894.29 МБ | Добавлен: 29 июл 2013
Раздают: 3    Качают: 3
Скачать торрент
Скачать торрент
Описание торрента

СообщениеДобавлено: 29 июл 2013 

#77

Информация о фильме
Название: Лунный свет
Оригинальное название: Lichtmond
Год выхода: 2010
Жанр: клип, музыкальное видео, Relax, Trance, New Age

О фильме:
Братья Джорджио и Мартин Коппехели (Avenue Music), авторы пользующейся заслуженной популярностью среди любителей многоканальной музыки, и не только, серии Ambra, представляют новый проект - "Lichtmond" ("Лунный свет").Визуальная часть представляет собой анимацию испанского художника-мультипликатора Diego M. Bonati, студия Imago-D - фантастические миры, созданные специально для "Lichtmond".
01. Erwachen
02. Morgenrot
03. Philosophy of Love
04. Frühlingstänzerin
05. Wenn des Mondes Strahl
06. Der Orangenzweig
07. Ich und Du
08. Sounds of Distance
09. Sonnenlicht
10. Shine on me
11. Serenity
12. Tal der Liebe
13. Flying over the Ocean
14. Abendrot
15. Frühlingstänzerin (Single Mix)
16. Frühlingstänzerin (Martyn Ware from Human League and Heaven 17 Club Remix)

Страна: Германия
Студия: Avenue Music (Alive)
Продолжительность: 00:47:16
Перевод: не требуется

Файл
Кодек: MKV, H.264
Качество: HDRip-AVC (рип с BDRip 720p)
Видео: h264, yuv420p, 1024x576 [PAR 1:1 DAR 16:9], 2000 kbps, 29.97 tb(r)
Звук: AC3, 48000 Hz, 5:1, 640 kbps
General
Unique ID : 10105811632332070593413286442963802623 (0x79A4EFB6579F463F807A17271BB99FF)
Complete name : /mnt/atlant/Video/Lunnyi.Svet.2010.X264.HDRip.AVC.mkv
Format : Matroska
File size : 894 MiB
Duration : 47mn 16s
Overall bit rate : 2 645 Kbps
Writing application : HandBrake 0.9.5
Writing library : libmkv 0.6.4.1

Video
ID : 1
Format : AVC
Format/Info : Advanced Video Codec
Format profile : High@L3.1
Format settings, CABAC : Yes
Format settings, ReFrames : 4 frames
Codec ID : V_MPEG4/ISO/AVC
Duration : 47mn 16s
Bit rate : 2 000 Kbps
Width : 1 024 pixels
Height : 576 pixels
Display aspect ratio : 16:9
Frame rate mode : Variable
Frame rate : 29.970 fps
Color space : YUV
Chroma subsampling : 4:2:0
Bit depth : 8 bits
Scan type : Progressive
Bits/(Pixel*Frame) : 0.113
Stream size : 660 MiB (74%)
Writing library : x264 core 112
Encoding settings : cabac=1 / ref=3 / deblock=1:0:0 / analyse=0x3:0x113 / me=hex / subme=7 / psy=1 / psy_rd=1.00:0.00 / mixed_ref=1 / me_range=16 / chroma_me=1 / trellis=1 / 8x8dct=1 / cqm=0 / deadzone=21,11 / fast_pskip=1 / chroma_qp_offset=-2 / threads=3 / sliced_threads=0 / nr=0 / decimate=1 / interlaced=0 / constrained_intra=0 / bframes=3 / b_pyramid=2 / b_adapt=1 / b_bias=0 / direct=1 / weightb=1 / open_gop=0 / weightp=2 / keyint=300 / keyint_min=29 / scenecut=40 / intra_refresh=0 / rc_lookahead=40 / rc=2pass / mbtree=1 / bitrate=2000 / ratetol=1.0 / qcomp=0.60 / qpmin=3 / qpmax=51 / qpstep=4 / cplxblur=20.0 / qblur=0.5 / ip_ratio=1.40 / aq=1:1.00
Language : English
Color primaries : BT.709-5, BT.1361, IEC 61966-2-4, SMPTE RP177
Transfer characteristics : BT.709-5, BT.1361
Matrix coefficients : BT.709-5, BT.1361, IEC 61966-2-4 709, SMPTE RP177

Audio
ID : 2
Format : AC-3
Format/Info : Audio Coding 3
Mode extension : CM (complete main)
Codec ID : A_AC3
Duration : 47mn 16s
Bit rate mode : Constant
Bit rate : 640 Kbps
Channel(s) : 6 channels
Channel positions : Front: L C R, Side: L R, LFE
Sampling rate : 48.0 KHz
Bit depth : 16 bits
Compression mode : Lossy
Stream size : 216 MiB (24%)

Menu
00:00:00.000 : Chapter 1
00:01:36.730 : Chapter 2
00:06:25.385 : Chapter 3
00:10:49.015 : Chapter 4
00:16:59.619 : Chapter 5
00:22:19.038 : Chapter 6
00:28:13.892 : Chapter 7
00:34:34.205 : Chapter 8
00:40:57.855 : Chapter 9
00:45:17.248 : Chapter 10
Релиз от:



   Похожие торренты   Торрент   Размер 
В этой теме нет новых непрочитанных сообщений. Лунный свет 4: Путешествие / Lichtmond 4: The Journey (2016) BDRip 720p от UAGet

22 | 0

3.4 ГБ

В этой теме нет новых непрочитанных сообщений. Лунный свет 3: Дни вечности / Lichtmond 3: Days of Eternity (2014) BDRip 720p от UAGet

142 | 29

2.73 ГБ

В этой теме нет новых непрочитанных сообщений. Джорджио и Мартин Коппехели - Лунный свет 4: Путешествие / Lichtmond 4: The Journey (2016) FLAC от UAGet

6 | 0

829.49 МБ

В этой теме нет новых непрочитанных сообщений. Лунный свет / Lichtmond (2010) BDRemux 1080p

64 | 18

7.86 ГБ

В этой теме нет новых непрочитанных сообщений. Лунный свет 4: Путешествие / Lichtmond 4: The Journey (2016) HDRip от ImperiaFilm

1 | 0

741.57 МБ

В этой теме нет новых непрочитанных сообщений. Лунный свет / Lichtmond (2010) BDRip 1080p от Ash61 | 3D-Video | halfOU

161 | 35

7.02 ГБ

В этой теме нет новых непрочитанных сообщений. Лунный свет: Путешествие / Lichtmond: The Journey (2016) BDRip от Kaztorrents

0 | 1

788.3 МБ




Вы не можете начинать темы
Вы не можете отвечать на сообщения
Вы не можете редактировать свои сообщения
Вы не можете удалять свои сообщения
Вы не можете добавлять вложения

Перейти:  
 Вход
ppkBB3cker v.2 © 2008-2014 @ PPK
[ Time : 0.029s | 15 Queries | GZIP : Off ]

cron