img image001 image001 image001 image001 image001 image001 image001 image001 image001 image001 image001 image001 image001 image001 image001

Planets Sun Sun Sun
Статистика раздачи
Автор: Снежана | Размер: 7.74 ГБ | Добавлен: 29 июл 2013
Раздают: 0    Качают: 3
Скачать торрент
Скачать торрент
Описание торрента

СообщениеДобавлено: 29 июл 2013 

#77

Оригинальное название: In View: The Best of R.E.M. 1988 - 2003
Год выхода: 2003
Жанр: Alternative

О фильме:
Сборник видео клипов увидевший свет в период сотрудничества с Warner Brosers, от «Green» 1988г. до «Reveal» 2001г. Видеоверсия компиляции «In Time: The Best of R.E.M. 1988-2003». Несмотря на релиз в последнюю неделю октября, сборник сразу попал в десятку лучших альбомов года в Великобритании.

01. Bad Day (2003)
02. All the Way to Reno (You're Gonna Be a Star) (2001)
03. Imitation of Life (2001)
04. The Great Beyond (1999)
05. At My Most Beautiful (1998)
06. Daysleeper (1998)
07. Electrolite (1996)
08. E-Bow the Letter - feat. Patti Smith (1996)
09. What's the Frequency, Kenneth? (1994)
10. Nightswimming (1993)
11. The Sidewinder Sleeps Tonite (1993)
12. Everybody Hurts (1993)
13. Man on the Moon (1992)
14. Losing My Religion (1991)
15. Stand (1989)
16. Orange Crush (1988)
17. Tongue (1995)
18. How the West Was Won and Where It Got Us (1997)
19. New Test Leper (1996)
20. Bittersweet Me (1996)
21. Lotus (1998)
22. I'll Take the Rain (2001)
23. Imitation of Life
24. Losing My Religion
25. Man on the Moon


Страна: Великобритания
Студия: Warner Music
Продолжительность: 01:36:00

Файл
Кодек: MPEG Video
Качество: DVD 9
Видео: 720 x 576 (1.333) at 25.000 fps/MPEG Video at 6334 Кбит/сек
Audio #0: AC-3 at 256 Кбит/сек/2 канала(ов), 48,0 КГц
Audio #1: AC-3 at 448 Кбит/сек/6 канала(ов), 48,0 КГц
Audio #2: DTS at 755 Кбит/сек/6 канала(ов), 48,0 КГц
Субтитры :Английские, немецкие, испанские, французские, итальянские, португальские

Видео
Идентификатор : 224 (0xE0)
Формат : MPEG Video
Версия формата : Version 2
Профиль формата : Main@Main
Параметр BVOP формата : Да
Параметр матрицы формата : По умолчанию
Продолжительность : 17 м.
Вид битрейта : Переменный
Битрейт : 6334 Кбит/сек
Номинальный битрейт : 9800 Кбит/сек
Ширина : 720 пикс.
Высота : 576 пикс.
Соотношение сторон : 4:3
Частота кадров : 25,000 кадр/сек
Стандарт вещания : PAL
Цветовое пространство : YUV
Подвыборка цветности : 4:2:0
Битовая глубина : 8 бит
Тип развёртки : Чересстрочная
Порядок развёртки : Верхнее поле первое
Метод сжатия : С потерями
Бит/(Пиксели*Кадры) : 0.611
Размер потока : 815 Мбайт (80%)

Аудио #1
Идентификатор : 128 (0x80)
Формат : AC-3
Формат/Информация : Audio Coding 3
Расширение режима : CM (complete main)
Продолжительность : 17 м.
Вид битрейта : Постоянный
Битрейт : 256 Кбит/сек
Канал(ы) : 2 канала(ов)
Расположение каналов : Front: L R
Частота : 48,0 КГц
Битовая глубина : 16 бит
Метод сжатия : С потерями
Задержка видео : -248 мс.
Размер потока : 33,0 Мбайт (3%)

Аудио #2
Идентификатор : 129 (0x81)
Формат : AC-3
Формат/Информация : Audio Coding 3
Расширение режима : CM (complete main)
Продолжительность : 17 м.
Вид битрейта : Постоянный
Битрейт : 448 Кбит/сек
Канал(ы) : 6 канала(ов)
Расположение каналов : Front: L C R, Side: L R, LFE
Частота : 48,0 КГц
Битовая глубина : 16 бит
Метод сжатия : С потерями
Задержка видео : -280 мс.
Размер потока : 57,7 Мбайт (6%)

Аудио #3
Идентификатор : 138 (0x8A)
Формат : DTS
Формат/Информация : Digital Theater Systems
Продолжительность : 17 м.
Вид битрейта : Постоянный
Битрейт : 755 Кбит/сек
Канал(ы) : 6 канала(ов)
Расположение каналов : Front: L C R, Side: L R, LFE
Частота : 48,0 КГц
Битовая глубина : 24 бит
Метод сжатия : С потерями
Задержка видео : -322 мс.
Размер потока : 97,1 Мбайт (9%)

Текст #1
Идентификатор : 32 (0x20)
Формат : RLE
Формат/Информация : Run-length encoding

Текст #2
Идентификатор : 33 (0x21)
Формат : RLE
Формат/Информация : Run-length encoding

Текст #3
Идентификатор : 34 (0x22)
Формат : RLE
Формат/Информация : Run-length encoding

Текст #4
Идентификатор : 35 (0x23)
Формат : RLE
Формат/Информация : Run-length encoding

Текст #5
Идентификатор : 36 (0x24)
Формат : RLE
Формат/Информация : Run-length encoding

Текст #6
Идентификатор : 37 (0x25)
Формат : RLE
Формат/Информация : Run-length encoding




   Похожие торренты   Торрент   Размер 
В этой теме нет новых непрочитанных сообщений. Вид сверху лучше / View from the Top (2003) DVDRip

59 | 10

1.73 ГБ

В этой теме нет новых непрочитанных сообщений. Вид сверху лучше / View from the Top (2003) DVDRip-AVC

14 | 2

1.93 ГБ

В этой теме нет новых непрочитанных сообщений. Вид сверху лучше / View from the Top (2003) WEB-DL 720p от HDClub

45 | 5

3.56 ГБ

В этой теме нет новых непрочитанных сообщений. Вид сверху лучше / View from the Top (2003) WEB-DLRip от Deadmauvlad | D

78 | 11

1.45 ГБ

В этой теме нет новых непрочитанных сообщений. VA - In Time: The Best of R.E.M. 1988–2003 (2003) MP3

39 | 6

318.3 МБ

В этой теме нет новых непрочитанных сообщений. Кое-что еще / Anything Else (2003) DVD9 от Brazzass

46 | 12

5.33 ГБ

В этой теме нет новых непрочитанных сообщений. Прогулка (2003) DVD9

3 | 1

5.24 ГБ




Вы не можете начинать темы
Вы не можете отвечать на сообщения
Вы не можете редактировать свои сообщения
Вы не можете удалять свои сообщения
Вы не можете добавлять вложения

Перейти:  
Для Мосгорсуда, Роскомнадзора и рекламодателей: mosgorsud-torrent[собачка]yandex.ru
 Вход
ppkBB3cker v.2 © 2008-2014 @ PPK
[ Time : 0.057s | 15 Queries | GZIP : Off ]

cron