img image001 image001 image001 image001 image001 image001 image001 image001 image001 image001 image001 image001 image001 image001 image001

Planets Sun Sun Sun
Статистика раздачи
Автор: Снежана | Размер: 7.36 ГБ | Добавлен: 29 июл 2013
Раздают: 34    Качают: 3
Скачать торрент
Скачать торрент
Описание торрента

СообщениеДобавлено: 29 июл 2013 

[hr][/hr][hr][/hr][center][img]http://s019.radikal.ru/i614/1204/32/08adeb784ace.jpg[/img][/center][hr][/hr][hr][/hr][b][center][color=#008000]Whitney Houston[hr][/hr][i]Клипография[/i][hr][/hr](36xVOB)[/color][/center][/b][hr][/hr][hr][/hr][b]Год выхода[/b]: 1985-2009
[b]Страна[/b]: USA
[b]Жанр[/b]: Pop/R&B/Soul
[b]Продолжительность[/b]: 02:47:36[hr][/hr][b]Качество[/b]: DVD
[b]Формат видео[/b]: VOB[hr][/hr][color=#BF0000][b]Уитни Элизабет Хьюстон[/b] (англ. Whitney Elizabeth Houston, род. 9 августа, 1963) — американская поп, соул и ритм-н-блюзовая певица, актриса, продюсер, бывшая фотомодель. Одна из самых коммерчески успешных поп-исполнительниц, известна своими музыкальными достижениями, вокальными способностями и скандальной личной жизнью.
Статус суперзвезды закрепился за Хьюстон после выхода в 1992 году на широкие мировые экраны фильма «Телохранитель» (англ. «The Bodyguard»), в котором она сыграла одну из главных ролей (вместе с Кевином Костнером) и исполнила основные музыкальные партии. Баллада «I Will Always Love You» (рус. «Я всегда буду любить тебя») из кинофильма стала мировым хитом и признанным гимном любви. Лауреат 6 наград «Грэмми», 15 наград «Billboard Music Awards», 21 наград «American Music Awards», 2 наград «Emmy», 8 наград «Soul Train Awards», 12 наград «NAACP Image Awards», «BET Lifetime Achievement Award», и множества других премий и наград звукозаписывающей индустрии.[/color][hr][/hr][center][color=blue][b]Треклист и тех. данные:[/b][/color][/center][spoiler="1985 - How Will I Know 00:04:34"][b]Видео[/b]: PAL, 720x576 (4:3), 25,000 кадров/сек, MPEG-2 Video, ~5424 Кбит/сек avg, 0.523 bit/pixel
[b]Аудио[/b]: 48,0 КГц, AC3, 6 ch, ~448 Кбит/сек[hr][/hr][center][url=http://i031.radikal.ru/1204/4d/392f82cbb9a4.png][img]http://i031.radikal.ru/1204/4d/392f82cbb9a4t.jpg[/img][/url][url=http://s43.radikal.ru/i100/1204/0a/a1e550a73ac8.png][img]http://s43.radikal.ru/i100/1204/0a/a1e550a73ac8t.jpg[/img][/url][url=http://s019.radikal.ru/i600/1204/37/11606fe1f42c.png][img]http://s019.radikal.ru/i600/1204/37/11606fe1f42ct.jpg[/img][/url][/center][/spoiler][spoiler="1985 - Saving All My Love for You 00:03:56"][b]Видео[/b]: PAL, 720x576 (4:3), 25,000 кадров/сек, MPEG-2 Video, ~5472 Кбит/сек avg, 0.528 bit/pixel
[b]Аудио[/b]: 48,0 КГц, AC3, 6 ch, ~448 Кбит/сек[hr][/hr][center][url=http://s55.radikal.ru/i150/1204/e5/3ef2e9ad2404.png][img]http://s55.radikal.ru/i150/1204/e5/3ef2e9ad2404t.jpg[/img][/url][url=http://i065.radikal.ru/1204/4f/1d86ce326140.png][img]http://i065.radikal.ru/1204/4f/1d86ce326140t.jpg[/img][/url][url=http://s019.radikal.ru/i632/1204/f3/296332cc060b.png][img]http://s019.radikal.ru/i632/1204/f3/296332cc060bt.jpg[/img][/url][/center][/spoiler][spoiler="1985 - You Give Good Love 00:04:06"][b]Видео[/b]: PAL, 720x576 (4:3), 25,000 кадров/сек, MPEG-2 Video, ~5495 Кбит/сек avg, 0.530 bit/pixel
[b]Аудио[/b]: 48,0 КГц, AC3, 6 ch, ~448 Кбит/сек[hr][/hr][center][url=http://s019.radikal.ru/i630/1204/28/a410dde33423.png][img]http://s019.radikal.ru/i630/1204/28/a410dde33423t.jpg[/img][/url][url=http://s019.radikal.ru/i616/1204/02/dd8203d3ef64.png][img]http://s019.radikal.ru/i616/1204/02/dd8203d3ef64t.jpg[/img][/url][url=http://s019.radikal.ru/i619/1204/29/4d54f1380513.png][img]http://s019.radikal.ru/i619/1204/29/4d54f1380513t.jpg[/img][/url][/center][/spoiler][spoiler="1986 - Greatest Love of All 00:04:51"][b]Видео[/b]: PAL, 720x576 (4:3), 25,000 кадров/сек, MPEG-2 Video, ~5498 Кбит/сек avg, 0.530 bit/pixel
[b]Аудио[/b]: 48,0 КГц, AC3, 6 ch, ~448 Кбит/сек[hr][/hr][center][url=http://s019.radikal.ru/i602/1204/74/533babd153e3.png][img]http://s019.radikal.ru/i602/1204/74/533babd153e3t.jpg[/img][/url][url=http://s019.radikal.ru/i624/1204/06/be1ff8e36f8f.png][img]http://s019.radikal.ru/i624/1204/06/be1ff8e36f8ft.jpg[/img][/url][url=http://s019.radikal.ru/i622/1204/ee/f416b8ed2ce0.png][img]http://s019.radikal.ru/i622/1204/ee/f416b8ed2ce0t.jpg[/img][/url][/center][/spoiler][spoiler="1987 - Didn't We Almost Have It All 00:06:50"][b]Видео[/b]: PAL, 720x576 (4:3), 25,000 кадров/сек, MPEG-2 Video, ~5490 Кбит/сек avg, 0.530 bit/pixel
[b]Аудио[/b]: 48,0 КГц, AC3, 6 ch, ~448 Кбит/сек[hr][/hr][center][url=http://s019.radikal.ru/i634/1204/17/f15df26cbe5c.png][img]http://s019.radikal.ru/i634/1204/17/f15df26cbe5ct.jpg[/img][/url][url=http://s019.radikal.ru/i635/1204/e1/bbd041a6293d.png][img]http://s019.radikal.ru/i635/1204/e1/bbd041a6293dt.jpg[/img][/url][url=http://s019.radikal.ru/i604/1204/f9/ff409af31708.png][img]http://s019.radikal.ru/i604/1204/f9/ff409af31708t.jpg[/img][/url][/center][/spoiler][spoiler="1987 - I Wanna Dance with Somebody (Who Loves Me) (Version 2 ) 00:04:45"][b]Видео[/b]: PAL, 720x576 (4:3), 25,000 кадров/сек, MPEG-2 Video, ~8000 Кбит/сек avg, 0.772 bit/pixel
[b]Аудио[/b]: 48,0 КГц, PCM, 2 ch, ~1536 Кбит/сек[hr][/hr][center][url=http://s61.radikal.ru/i172/1204/6b/cfe2e9bb9e42.png][img]http://s61.radikal.ru/i172/1204/6b/cfe2e9bb9e42t.jpg[/img][/url][url=http://s019.radikal.ru/i632/1204/88/b4a83f83308a.png][img]http://s019.radikal.ru/i632/1204/88/b4a83f83308at.jpg[/img][/url][url=http://s019.radikal.ru/i639/1204/aa/1bb50fde8528.png][img]http://s019.radikal.ru/i639/1204/aa/1bb50fde8528t.jpg[/img][/url][/center][/spoiler][spoiler="1987 - I Wanna Dance with Somebody (Who Loves Me) (Version 2, added extra shots to version 1) 00:05:15"][b]Видео[/b]: PAL, 720x576 (4:3), 25,000 кадров/сек, MPEG-2 Video, ~5532 Кбит/сек avg, 0.534 bit/pixel
[b]Аудио[/b]: 48,0 КГц, AC3, 6 ch, ~448 Кбит/сек[hr][/hr][center][url=http://s019.radikal.ru/i609/1204/b7/1791e84847c3.png][img]http://s019.radikal.ru/i609/1204/b7/1791e84847c3t.jpg[/img][/url][url=http://s019.radikal.ru/i601/1204/24/d1ede3c9bb42.png][img]http://s019.radikal.ru/i601/1204/24/d1ede3c9bb42t.jpg[/img][/url][url=http://s019.radikal.ru/i606/1204/9d/5ffaf89b8060.png][img]http://s019.radikal.ru/i606/1204/9d/5ffaf89b8060t.jpg[/img][/url][/center][/spoiler][spoiler="1987 - So Emotional 00:04:05"][b]Видео[/b]: PAL, 720x576 (4:3), 25,000 кадров/сек, MPEG-2 Video, ~5451 Кбит/сек avg, 0.526 bit/pixel
[b]Аудио[/b]: 48,0 КГц, AC3, 6 ch, ~448 Кбит/сек[hr][/hr][center][url=http://s019.radikal.ru/i617/1204/ce/e60a6bf3ce1a.png][img]http://s019.radikal.ru/i617/1204/ce/e60a6bf3ce1at.jpg[/img][/url][url=http://s019.radikal.ru/i606/1204/bd/4734d3959b4a.png][img]http://s019.radikal.ru/i606/1204/bd/4734d3959b4at.jpg[/img][/url][url=http://s49.radikal.ru/i124/1204/ae/a0fd9c4a78e4.png][img]http://s49.radikal.ru/i124/1204/ae/a0fd9c4a78e4t.jpg[/img][/url][/center][/spoiler][spoiler="1988 - Where Do Broken Hearts Go 00:04:38"][b]Видео[/b]: PAL, 720x576 (4:3), 25,000 кадров/сек, MPEG-2 Video, ~5475 Кбит/сек avg, 0.528 bit/pixel
[b]Аудио[/b]: 48,0 КГц, AC3, 6 ch, ~448 Кбит/сек[hr][/hr][center][url=http://s019.radikal.ru/i629/1204/03/c63725276066.png][img]http://s019.radikal.ru/i629/1204/03/c63725276066t.jpg[/img][/url][url=http://s019.radikal.ru/i602/1204/63/d06f860eb9c7.png][img]http://s019.radikal.ru/i602/1204/63/d06f860eb9c7t.jpg[/img][/url][url=http://s019.radikal.ru/i616/1204/2c/b9650d83645b.png][img]http://s019.radikal.ru/i616/1204/2c/b9650d83645bt.jpg[/img][/url][/center][/spoiler][spoiler="1990 - I'm Your Baby Tonight 00:04:26"][b]Видео[/b]: PAL, 720x576 (4:3), 25,000 кадров/сек, MPEG-2 Video, ~5467 Кбит/сек avg, 0.527 bit/pixel
[b]Аудио[/b]: 48,0 КГц, AC3, 6 ch, ~448 Кбит/сек[hr][/hr][center][url=http://s019.radikal.ru/i642/1204/04/30441f581948.png][img]http://s019.radikal.ru/i642/1204/04/30441f581948t.jpg[/img][/url][url=http://s019.radikal.ru/i632/1204/c7/7620b613711a.png][img]http://s019.radikal.ru/i632/1204/c7/7620b613711at.jpg[/img][/url][url=http://s019.radikal.ru/i620/1204/05/0f586abd6cc5.png][img]http://s019.radikal.ru/i620/1204/05/0f586abd6cc5t.jpg[/img][/url][/center][/spoiler][spoiler="1991 - All the Man That I Need 00:04:03"][b]Видео[/b]: PAL, 720x576 (4:3), 25,000 кадров/сек, MPEG-2 Video, ~5500 Кбит/сек avg, 0.530 bit/pixel
[b]Аудио[/b]: 48,0 КГц, AC3, 6 ch, ~448 Кбит/сек[hr][/hr][center][url=http://s019.radikal.ru/i623/1204/35/38aed78f2cde.png][img]http://s019.radikal.ru/i623/1204/35/38aed78f2cdet.jpg[/img][/url][url=http://s019.radikal.ru/i628/1204/32/7c8448690dbf.png][img]http://s019.radikal.ru/i628/1204/32/7c8448690dbft.jpg[/img][/url][url=http://s019.radikal.ru/i637/1204/0f/9e60aed00ffa.png][img]http://s019.radikal.ru/i637/1204/0f/9e60aed00ffat.jpg[/img][/url][/center][/spoiler][spoiler="1991 - My Name Is Not Susan 00:04:15"][b]Видео[/b]: NTSC, 720x480 (4:3), 29,970 кадров/сек, MPEG-2 Video, ~8000 Кбит/сек avg, 0.772 bit/pixel
[b]Аудио[/b]: 48,0 КГц, AC3, 2 ch, ~448 Кбит/сек[hr][/hr][center][url=http://i065.radikal.ru/1204/86/ea718da2c878.png][img]http://i065.radikal.ru/1204/86/ea718da2c878t.jpg[/img][/url][url=http://s47.radikal.ru/i115/1204/50/7ab7e8d541b9.png][img]http://s47.radikal.ru/i115/1204/50/7ab7e8d541b9t.jpg[/img][/url][url=http://s019.radikal.ru/i614/1204/75/16da000bd613.png][img]http://s019.radikal.ru/i614/1204/75/16da000bd613t.jpg[/img][/url][/center][/spoiler][spoiler="1991 - The Star Spangled Banner 00:02:49"][b]Видео[/b]: PAL, 720x576 (4:3), 25,000 кадров/сек, MPEG-2 Video, ~5500 Кбит/сек avg, 0.530 bit/pixel
[b]Аудио[/b]: 48,0 КГц, AC3, 6 ch, ~448 Кбит/сек[hr][/hr][center][url=http://s51.radikal.ru/i131/1204/d9/76d4b897e57e.png][img]http://s51.radikal.ru/i131/1204/d9/76d4b897e57et.jpg[/img][/url][url=http://s018.radikal.ru/i507/1204/81/6acc7fd87ff6.png][img]http://s018.radikal.ru/i507/1204/81/6acc7fd87ff6t.jpg[/img][/url][url=http://s019.radikal.ru/i611/1204/7f/7318d662e15f.png][img]http://s019.radikal.ru/i611/1204/7f/7318d662e15ft.jpg[/img][/url][/center][/spoiler][spoiler="1992 - I Will Always Love You 00:04:35"][b]Видео[/b]: PAL, 720x576 (4:3), 25,000 кадров/сек, MPEG-2 Video, ~5468 Кбит/сек avg, 0.527 bit/pixel
[b]Аудио[/b]: 48,0 КГц, AC3, 6 ch, ~448 Кбит/сек[hr][/hr][center][url=http://s41.radikal.ru/i094/1204/dc/2869a92d3f69.png][img]http://s41.radikal.ru/i094/1204/dc/2869a92d3f69t.jpg[/img][/url][url=http://s019.radikal.ru/i620/1204/18/bfa600fcfe9b.png][img]http://s019.radikal.ru/i620/1204/18/bfa600fcfe9bt.jpg[/img][/url][url=http://s019.radikal.ru/i643/1204/7b/6c68e748dac6.png][img]http://s019.radikal.ru/i643/1204/7b/6c68e748dac6t.jpg[/img][/url][/center][/spoiler][spoiler="1993 - I Have Nothing 00:04:49"][b]Видео[/b]: PAL, 720x576 (4:3), 25,000 кадров/сек, MPEG-2 Video, ~5495 Кбит/сек avg, 0.530 bit/pixel
[b]Аудио[/b]: 48,0 КГц, AC3, 6 ch, ~448 Кбит/сек[hr][/hr][center][url=http://s019.radikal.ru/i603/1204/fa/fdd1c796b45f.png][img]http://s019.radikal.ru/i603/1204/fa/fdd1c796b45ft.jpg[/img][/url][url=http://s019.radikal.ru/i627/1204/2a/dcb1cecaeeef.png][img]http://s019.radikal.ru/i627/1204/2a/dcb1cecaeeeft.jpg[/img][/url][url=http://s019.radikal.ru/i602/1204/4c/79af74b10866.png][img]http://s019.radikal.ru/i602/1204/4c/79af74b10866t.jpg[/img][/url][/center][/spoiler][spoiler="1993 - I'm Every Woman 00:04:46"][b]Видео[/b]: PAL, 720x576 (4:3), 25,000 кадров/сек, MPEG-2 Video, ~5530 Кбит/сек avg, 0.533 bit/pixel
[b]Аудио[/b]: 48,0 КГц, AC3, 6 ch, ~448 Кбит/сек[hr][/hr][center][url=http://s017.radikal.ru/i418/1204/88/10130eb6c084.png][img]http://s017.radikal.ru/i418/1204/88/10130eb6c084t.jpg[/img][/url][url=http://s019.radikal.ru/i627/1204/5f/b00a81f9dba6.png][img]http://s019.radikal.ru/i627/1204/5f/b00a81f9dba6t.jpg[/img][/url][url=http://s019.radikal.ru/i625/1204/65/0fb44fc7571f.png][img]http://s019.radikal.ru/i625/1204/65/0fb44fc7571ft.jpg[/img][/url][/center][/spoiler][spoiler="1993 - Run to You 00:04:19"][b]Видео[/b]: PAL, 720x576 (4:3), 25,000 кадров/сек, MPEG-2 Video, ~5495 Кбит/сек avg, 0.530 bit/pixel
[b]Аудио[/b]: 48,0 КГц, AC3, 6 ch, ~448 Кбит/сек[hr][/hr][center][url=http://s018.radikal.ru/i510/1204/6d/5a9c32280cd4.png][img]http://s018.radikal.ru/i510/1204/6d/5a9c32280cd4t.jpg[/img][/url][url=http://s019.radikal.ru/i636/1204/33/0cd6776fd55f.png][img]http://s019.radikal.ru/i636/1204/33/0cd6776fd55ft.jpg[/img][/url][url=http://s50.radikal.ru/i129/1204/b8/7f3542b8c256.png][img]http://s50.radikal.ru/i129/1204/b8/7f3542b8c256t.jpg[/img][/url][/center][/spoiler][spoiler="1993 - Something in Common"][b]Видео[/b]: NTSC, 720x480 (4:3), 29,970 кадров/сек, MPEG-2 Video, ~8000 Кбит/сек avg, 0.772 bit/pixel
[b]Аудио[/b]: 48,0 КГц, PCM, 2 ch, ~1536 Кбит/сек[hr][/hr][center][url=http://s019.radikal.ru/i635/1204/6e/41ad650a42fb.png][img]http://s019.radikal.ru/i635/1204/6e/41ad650a42fbt.jpg[/img][/url][url=http://s019.radikal.ru/i629/1204/9e/5a693cc7ac64.png][img]http://s019.radikal.ru/i629/1204/9e/5a693cc7ac64t.jpg[/img][/url][url=http://s13.radikal.ru/i186/1204/e5/14b3d19ebf4e.png][img]http://s13.radikal.ru/i186/1204/e5/14b3d19ebf4et.jpg[/img][/url][/center][/spoiler][spoiler="1994 - Queen of the Night 00:03:04"][b]Видео[/b]: PAL, 720x576 (4:3), 25,000 кадров/сек, MPEG-2 Video, ~5500 Кбит/сек avg, 0.530 bit/pixel
[b]Аудио[/b]: 48,0 КГц, AC3, 6 ch, ~448 Кбит/сек[hr][/hr][center][url=http://s019.radikal.ru/i610/1204/ad/857683de93e1.png][img]http://s019.radikal.ru/i610/1204/ad/857683de93e1t.jpg[/img][/url][url=http://s019.radikal.ru/i600/1204/3b/22ace65f9ffc.png][img]http://s019.radikal.ru/i600/1204/3b/22ace65f9ffct.jpg[/img][/url][url=http://s019.radikal.ru/i616/1204/02/12428f997d1a.png][img]http://s019.radikal.ru/i616/1204/02/12428f997d1at.jpg[/img][/url][/center][/spoiler][spoiler="1995 - Exhale (Shoop shoop) 00:03:22"][b]Видео[/b]: PAL, 720x576 (4:3), 25,000 кадров/сек, MPEG-2 Video, ~5500 Кбит/сек avg, 0.530 bit/pixel
[b]Аудио[/b]: 48,0 КГц, AC3, 6 ch, ~448 Кбит/сек[hr][/hr][center][url=http://s019.radikal.ru/i638/1204/b5/31ce601a97ff.png][img]http://s019.radikal.ru/i638/1204/b5/31ce601a97fft.jpg[/img][/url][url=http://s44.radikal.ru/i105/1204/74/2911d4638f48.png][img]http://s44.radikal.ru/i105/1204/74/2911d4638f48t.jpg[/img][/url][url=http://s43.radikal.ru/i100/1204/4d/f058a0a570a7.png][img]http://s43.radikal.ru/i100/1204/4d/f058a0a570a7t.jpg[/img][/url][/center][/spoiler][spoiler="1996 - Count on Me 00:04:29"][b]Видео[/b]: NTSC, 720x480 (4:3), 29,970 кадров/сек, MPEG-2 Video, ~8000 Кбит/сек avg, 0.772 bit/pixel
[b]Аудио[/b]: 48,0 КГц, PCM, 2 ch, ~1536 Кбит/сек[hr][/hr][center][url=http://s019.radikal.ru/i634/1204/ac/a926319e73c3.png][img]http://s019.radikal.ru/i634/1204/ac/a926319e73c3t.jpg[/img][/url][url=http://s019.radikal.ru/i604/1204/95/d196316b09ce.png][img]http://s019.radikal.ru/i604/1204/95/d196316b09cet.jpg[/img][/url][url=http://s019.radikal.ru/i638/1204/f7/17c3223dd463.png][img]http://s019.radikal.ru/i638/1204/f7/17c3223dd463t.jpg[/img][/url][/center][/spoiler][spoiler="1996 - I Believe In You And Me 00:04:06"][b]Видео[/b]: PAL, 720x576 (4:3), 25,000 кадров/сек, MPEG-2 Video, ~5461 Кбит/сек avg, 0.527 bit/pixel
[b]Аудио[/b]: 48,0 КГц, AC3, 6 ch, ~448 Кбит/сек[hr][/hr][center][url=http://s019.radikal.ru/i641/1204/da/366b9e143a5e.png][img]http://s019.radikal.ru/i641/1204/da/366b9e143a5et.jpg[/img][/url][url=http://s017.radikal.ru/i408/1204/86/4c4cf239fba3.png][img]http://s017.radikal.ru/i408/1204/86/4c4cf239fba3t.jpg[/img][/url][url=http://s019.radikal.ru/i613/1204/bd/72a50fc43a8c.png][img]http://s019.radikal.ru/i613/1204/bd/72a50fc43a8ct.jpg[/img][/url][/center][/spoiler][spoiler="1997 - Step by Step 00:04:12"][b]Видео[/b]: PAL, 720x576 (4:3), 25,000 кадров/сек, MPEG-2 Video, ~5545 Кбит/сек avg, 0.535 bit/pixel
[b]Аудио[/b]: 48,0 КГц, AC3, 6 ch, ~448 Кбит/сек[hr][/hr][center][url=http://s58.radikal.ru/i159/1204/6f/8423be135d47.png][img]http://s58.radikal.ru/i159/1204/6f/8423be135d47t.jpg[/img][/url][url=http://s019.radikal.ru/i637/1204/66/1295c8a258a5.png][img]http://s019.radikal.ru/i637/1204/66/1295c8a258a5t.jpg[/img][/url][url=http://s11.radikal.ru/i183/1204/5f/e8b40f8fca9d.png][img]http://s11.radikal.ru/i183/1204/5f/e8b40f8fca9dt.jpg[/img][/url][/center][/spoiler][spoiler="1998 - When You Believe 00:04:59"][b]Видео[/b]: PAL, 720x576 (4:3), 25,000 кадров/сек, MPEG-2 Video, ~6160 Кбит/сек avg, 0.594 bit/pixel
[b]Аудио[/b]: 48,0 КГц, PCM, 2 ch, ~1536 Кбит/сек[hr][/hr][center][url=http://s019.radikal.ru/i628/1204/b7/9baa39f944c7.png][img]http://s019.radikal.ru/i628/1204/b7/9baa39f944c7t.jpg[/img][/url][url=http://s018.radikal.ru/i522/1204/b7/3bc25f846960.png][img]http://s018.radikal.ru/i522/1204/b7/3bc25f846960t.jpg[/img][/url][url=http://s019.radikal.ru/i624/1204/49/082425eb4f6a.png][img]http://s019.radikal.ru/i624/1204/49/082425eb4f6at.jpg[/img][/url][/center][/spoiler][spoiler="1999 - Heartbreak Hotel 00:04:03"][b]Видео[/b]: PAL, 720x576 (4:3), 25,000 кадров/сек, MPEG-2 Video, ~5500 Кбит/сек avg, 0.530 bit/pixel
[b]Аудио[/b]: 48,0 КГц, AC3, 6 ch, ~448 Кбит/сек[hr][/hr][center][url=http://s47.radikal.ru/i115/1204/10/f7ae0736b2b1.png][img]http://s47.radikal.ru/i115/1204/10/f7ae0736b2b1t.jpg[/img][/url][url=http://s019.radikal.ru/i609/1204/26/61e1a1fea1dd.png][img]http://s019.radikal.ru/i609/1204/26/61e1a1fea1ddt.jpg[/img][/url][url=http://s019.radikal.ru/i617/1204/fb/b1af624a4bfc.png][img]http://s019.radikal.ru/i617/1204/fb/b1af624a4bfct.jpg[/img][/url][/center][/spoiler][spoiler="1999 - I Learned from the Best 00:04:24"][b]Видео[/b]: PAL, 720x576 (4:3), 25,000 кадров/сек, MPEG-2 Video, ~5495 Кбит/сек avg, 0.530 bit/pixel
[b]Аудио[/b]: 48,0 КГц, AC3, 6 ch, ~448 Кбит/сек[hr][/hr][center][url=http://s019.radikal.ru/i605/1204/41/e406a78634f7.png][img]http://s019.radikal.ru/i605/1204/41/e406a78634f7t.jpg[/img][/url][url=http://s019.radikal.ru/i612/1204/7d/26951834b83a.png][img]http://s019.radikal.ru/i612/1204/7d/26951834b83at.jpg[/img][/url][url=http://s019.radikal.ru/i643/1204/eb/596e1feb555d.png][img]http://s019.radikal.ru/i643/1204/eb/596e1feb555dt.jpg[/img][/url][/center][/spoiler][spoiler="1999 - It's Not Right But It's Okay 00:04:20"][b]Видео[/b]: PAL, 720x576 (4:3), 25,000 кадров/сек, MPEG-2 Video, ~5500 Кбит/сек avg, 0.530 bit/pixel
[b]Аудио[/b]: 48,0 КГц, AC3, 6 ch, ~448 Кбит/сек[hr][/hr][center][url=http://s019.radikal.ru/i610/1204/e5/a895bbf159e8.png][img]http://s019.radikal.ru/i610/1204/e5/a895bbf159e8t.jpg[/img][/url][url=http://s019.radikal.ru/i637/1204/d8/bb5a1c01a914.png][img]http://s019.radikal.ru/i637/1204/d8/bb5a1c01a914t.jpg[/img][/url][url=http://s019.radikal.ru/i605/1204/0a/fbe04a7100f9.png][img]http://s019.radikal.ru/i605/1204/0a/fbe04a7100f9t.jpg[/img][/url][/center][/spoiler][spoiler="1999 - My Love Is Your Love (Version 1) 00:04:17"][b]Видео[/b]: NTSC, 720x480 (4:3), 29,970 кадров/сек, MPEG-2 Video, ~5500 Кбит/сек avg, 0.531 bit/pixel
[b]Аудио[/b]: 48,0 КГц, PCM, 2 ch, ~1536 Кбит/сек[hr][/hr][center][url=http://s11.radikal.ru/i183/1204/5e/34523cb28f1c.png][img]http://s11.radikal.ru/i183/1204/5e/34523cb28f1ct.jpg[/img][/url][url=http://s019.radikal.ru/i641/1204/6f/45579c4a62ef.png][img]http://s019.radikal.ru/i641/1204/6f/45579c4a62eft.jpg[/img][/url][url=http://s017.radikal.ru/i417/1204/db/c80cb4d38510.png][img]http://s017.radikal.ru/i417/1204/db/c80cb4d38510t.jpg[/img][/url][/center][/spoiler][spoiler="2000 - Could I Have This Kiss Forever 00:03:54"][b]Видео[/b]: NTSC, 720x480 (4:3), 29,970 кадров/сек, MPEG-2 Video, ~3384 Кбит/сек avg, 0.327 bit/pixel
[b]Аудио[/b]: 48,0 КГц, PCM, 2 ch, ~1536 Кбит/сек[hr][/hr][center][url=http://s019.radikal.ru/i632/1204/cc/d54c0962b7bd.png][img]http://s019.radikal.ru/i632/1204/cc/d54c0962b7bdt.jpg[/img][/url][url=http://s005.radikal.ru/i212/1204/86/87c4a52b6bde.png][img]http://s005.radikal.ru/i212/1204/86/87c4a52b6bdet.jpg[/img][/url][url=http://s019.radikal.ru/i631/1204/c0/63383843d7cd.png][img]http://s019.radikal.ru/i631/1204/c0/63383843d7cdt.jpg[/img][/url][/center][/spoiler][spoiler="2000 - If I Told You That 00:04:11"][b]Видео[/b]: PAL, 720x576 (4:3), 25,000 кадров/сек, MPEG-2 Video, ~3769 Кбит/сек avg, 0.364 bit/pixel
[b]Аудио[/b]: 48,0 КГц, AC3, 6 ch, ~448 Кбит/сек
[b]Аудио[/b]: 48,0 КГц, PCM, 2 ch, ~1536 Кбит/сек[hr][/hr][center][url=http://s019.radikal.ru/i639/1204/39/4c7129b4ceed.png][img]http://s019.radikal.ru/i639/1204/39/4c7129b4ceedt.jpg[/img][/url][url=http://s019.radikal.ru/i608/1204/44/2040bd7b60a1.png][img]http://s019.radikal.ru/i608/1204/44/2040bd7b60a1t.jpg[/img][/url][url=http://s019.radikal.ru/i618/1204/6c/e6a4d1dd9b0f.png][img]http://s019.radikal.ru/i618/1204/6c/e6a4d1dd9b0ft.jpg[/img][/url][/center][/spoiler][spoiler="2002 - One of Those Days 00:03:59"][b]Видео[/b]: NTSC, 720x480 (4:3), 29,970 кадров/сек, MPEG-2 Video, ~7000 Кбит/сек avg, 0.676 bit/pixel
[b]Аудио[/b]: 48,0 КГц, AC3, 2 ch, ~384 Кбит/сек[hr][/hr][center][url=http://s005.radikal.ru/i211/1204/b4/fc5f09be3b67.png][img]http://s005.radikal.ru/i211/1204/b4/fc5f09be3b67t.jpg[/img][/url][url=http://s019.radikal.ru/i611/1204/c8/e67722f32bc8.png][img]http://s019.radikal.ru/i611/1204/c8/e67722f32bc8t.jpg[/img][/url][url=http://s019.radikal.ru/i603/1204/66/e1cc16a484c9.png][img]http://s019.radikal.ru/i603/1204/66/e1cc16a484c9t.jpg[/img][/url][/center][/spoiler][spoiler="2002 - Whatchulookinat (Rockamerica Remix) 00:05:21"][b]Видео[/b]: NTSC, 720x480 (4:3), 29,970 кадров/сек, MPEG-2 Video, ~5000 Кбит/сек avg, 0.483 bit/pixel
[b]Аудио[/b]: 48,0 КГц, AC3, 2 ch, ~224 Кбит/сек[hr][/hr][center][url=http://i052.radikal.ru/1204/c5/533235d0580a.png][img]http://i052.radikal.ru/1204/c5/533235d0580at.jpg[/img][/url][url=http://s019.radikal.ru/i624/1204/c4/ed50531880b4.png][img]http://s019.radikal.ru/i624/1204/c4/ed50531880b4t.jpg[/img][/url][url=http://s018.radikal.ru/i507/1204/5c/b590a6f35277.png][img]http://s018.radikal.ru/i507/1204/5c/b590a6f35277t.jpg[/img][/url][/center][/spoiler][spoiler="2002 - Whatchulookinat 00:04:11"][b]Видео[/b]: NTCS, 720x480 (4:3), 29,970 кадров/сек, MPEG-2 Video, ~8000 Кбит/сек avg, 0.772 bit/pixel
[b]Аудио[/b]: 48,0 КГц, AC3, 6 ch, ~448 Кбит/сек[hr][/hr][center][url=http://s55.radikal.ru/i150/1204/0a/a095b23f7289.png][img]http://s55.radikal.ru/i150/1204/0a/a095b23f7289t.jpg[/img][/url][url=http://s019.radikal.ru/i606/1204/80/def22f0a9901.png][img]http://s019.radikal.ru/i606/1204/80/def22f0a9901t.jpg[/img][/url][url=http://i053.radikal.ru/1204/1e/fd7283902d01.png][img]http://i053.radikal.ru/1204/1e/fd7283902d01t.jpg[/img][/url][/center][/spoiler][spoiler="2003 - Try It on My Own 00:04:49"][b]Видео[/b]: NTSC, 720x480 (4:3), 29,970 кадров/сек, MPEG-2 Video, ~7500 Кбит/сек avg, 0.724 bit/pixel
[b]Аудио[/b]: 48,0 КГц, AC3, 2 ch, ~384 Кбит/сек[hr][/hr][center][url=http://s019.radikal.ru/i602/1204/6b/6ea49823d46f.png][img]http://s019.radikal.ru/i602/1204/6b/6ea49823d46ft.jpg[/img][/url][url=http://s07.radikal.ru/i180/1204/2d/cf04ad4ae389.png][img]http://s07.radikal.ru/i180/1204/2d/cf04ad4ae389t.jpg[/img][/url][url=http://s019.radikal.ru/i626/1204/1c/22260415c492.png][img]http://s019.radikal.ru/i626/1204/1c/22260415c492t.jpg[/img][/url][/center][/spoiler][spoiler="2009 - I Look to You 00:04:34"][b]Видео[/b]: NTSC, 720x480 (4:3), 29,970 кадров/сек, MPEG-2 Video, ~5899 Кбит/сек avg, 0.570 bit/pixel
[b]Аудио[/b]: 48,0 КГц, MPEG-1 Audio layer 2, 2 ch, ~224 Кбит/сек[hr][/hr][center][url=http://s59.radikal.ru/i163/1204/8f/12618ddf6f31.png][img]http://s59.radikal.ru/i163/1204/8f/12618ddf6f31t.jpg[/img][/url][url=http://s017.radikal.ru/i434/1204/35/db51f23fd2aa.png][img]http://s017.radikal.ru/i434/1204/35/db51f23fd2aat.jpg[/img][/url][url=http://s019.radikal.ru/i617/1204/32/1afa8534aab0.png][img]http://s019.radikal.ru/i617/1204/32/1afa8534aab0t.jpg[/img][/url][/center][/spoiler][spoiler="2009 - Million Dollar Bill 00:03:55"][b]Видео[/b]: PAL, 720x576 (4:3), 25,000 кадров/сек, MPEG-2 Video, TMPGEnc XPress / 4.3.1.222 4.3.1.222 ~6374 Кбит/сек avg, 0.615 bit/pixel
[b]Аудио[/b]: 48,0 КГц, PCM, 2 ch, ~1536 Кбит/сек[hr][/hr][center][url=http://s019.radikal.ru/i631/1204/cc/f4453242ebac.png][img]http://s019.radikal.ru/i631/1204/cc/f4453242ebact.jpg[/img][/url][url=http://s019.radikal.ru/i630/1204/7e/77385989718b.png][img]http://s019.radikal.ru/i630/1204/7e/77385989718bt.jpg[/img][/url][url=http://s019.radikal.ru/i615/1204/16/960abff20ea6.png][img]http://s019.radikal.ru/i615/1204/16/960abff20ea6t.jpg[/img][/url][/center][/spoiler][hr][/hr][spoiler="MediaInfo"]Общее
Полное имя : S:КОНЦЕРТЫ & КЛИПЫWhitney Houston - Клипография [36xVOB, 1985-2009]1985 - How Will I Know.vob
Формат : MPEG-PS
Размер файла : 196 Мбайт
Продолжительность : 4 м. 34 с.
Режим общего битрейта : Переменный
Общий поток : 5991 Кбит/сек

Видео
Идентификатор : 224 (0xE0)
Формат : MPEG Video
Версия формата : Version 2
Профиль формата : Main@Main
Параметр BVOP формата : Да
Параметр матрицы формата : Выборочная
Параметр GOP формата : M=3, N=15
Продолжительность : 4 м. 34 с.
Вид битрейта : Переменный
Битрейт : 5424 Кбит/сек
Ширина : 720 пикселей
Высота : 576 пикселей
Соотношение сторон : 4:3
Частота кадров : 25,000 кадров/сек
Стандарт вещания : PAL
Цветовое пространство : YUV
Субдискретизация насыщенности : 4:2:0
Битовая глубина : 8 бит
Тип развёртки : Чересстрочная
Порядок развёртки : Верхнее поле первое
Метод сжатия : С потерями
Бит/(Пиксели*Кадры) : 0.523
Размер потока : 178 Мбайт (91%)

Аудио
Идентификатор : 189 (0xBD)-129 (0x81)
Формат : AC-3
Формат/Информация : Audio Coding 3
Расширение режима : CM (complete main)
Параметр Endianness формата : Big
Режим смешивания : DVD-Video
Продолжительность : 4 м. 34 с.
Вид битрейта : Постоянный
Битрейт : 448 Кбит/сек
Каналы : 6 каналов
Расположение каналов : Front: L C R, Side: L R, LFE
Частота : 48,0 КГц
Битовая глубина : 16 бит
Метод сжатия : С потерями
Задержка видео : -80 мс.
Размер потока : 14,7 Мбайт (7%)

Меню

Общее
Полное имя : S:КОНЦЕРТЫ & КЛИПЫWhitney Houston - Клипография [36xVOB, 1985-2009]1985 - Saving All My Love for You.vob
Формат : MPEG-PS
Размер файла : 171 Мбайт
Продолжительность : 3 м. 56 с.
Режим общего битрейта : Переменный
Общий поток : 6040 Кбит/сек

Видео
Идентификатор : 224 (0xE0)
Формат : MPEG Video
Версия формата : Version 2
Профиль формата : Main@Main
Параметр BVOP формата : Да
Параметр матрицы формата : Выборочная
Параметр GOP формата : M=3, N=15
Продолжительность : 3 м. 56 с.
Вид битрейта : Переменный
Битрейт : 5472 Кбит/сек
Максимальный битрейт : 4889 Кбит/сек
Ширина : 720 пикселей
Высота : 576 пикселей
Соотношение сторон : 4:3
Частота кадров : 25,000 кадров/сек
Стандарт вещания : PAL
Цветовое пространство : YUV
Субдискретизация насыщенности : 4:2:0
Битовая глубина : 8 бит
Тип развёртки : Чересстрочная
Порядок развёртки : Верхнее поле первое
Метод сжатия : С потерями
Бит/(Пиксели*Кадры) : 0.528
Размер потока : 155 Мбайт (91%)

Аудио
Идентификатор : 189 (0xBD)-129 (0x81)
Формат : AC-3
Формат/Информация : Audio Coding 3
Расширение режима : CM (complete main)
Параметр Endianness формата : Big
Режим смешивания : DVD-Video
Продолжительность : 3 м. 56 с.
Вид битрейта : Постоянный
Битрейт : 448 Кбит/сек
Каналы : 6 каналов
Расположение каналов : Front: L C R, Side: L R, LFE
Частота : 48,0 КГц
Битовая глубина : 16 бит
Метод сжатия : С потерями
Задержка видео : -80 мс.
Размер потока : 12,6 Мбайт (7%)

Меню

Общее
Полное имя : S:КОНЦЕРТЫ & КЛИПЫWhitney Houston - Клипография [36xVOB, 1985-2009]1985 - You Give Good Love.vob
Формат : MPEG-PS
Размер файла : 178 Мбайт
Продолжительность : 4 м. 6 с.
Режим общего битрейта : Переменный
Общий поток : 6064 Кбит/сек

Видео
Идентификатор : 224 (0xE0)
Формат : MPEG Video
Версия формата : Version 2
Профиль формата : Main@Main
Параметр BVOP формата : Да
Параметр матрицы формата : Выборочная
Продолжительность : 4 м. 6 с.
Вид битрейта : Переменный
Битрейт : 5495 Кбит/сек
Ширина : 720 пикселей
Высота : 576 пикселей
Соотношение сторон : 4:3
Частота кадров : 25,000 кадров/сек
Стандарт вещания : PAL
Цветовое пространство : YUV
Субдискретизация насыщенности : 4:2:0
Битовая глубина : 8 бит
Тип развёртки : Чересстрочная
Порядок развёртки : Верхнее поле первое
Метод сжатия : С потерями
Бит/(Пиксели*Кадры) : 0.530
Размер потока : 162 Мбайт (91%)

Аудио
Идентификатор : 189 (0xBD)-129 (0x81)
Формат : AC-3
Формат/Информация : Audio Coding 3
Расширение режима : CM (complete main)
Параметр Endianness формата : Big
Режим смешивания : DVD-Video
Продолжительность : 4 м. 6 с.
Вид битрейта : Постоянный
Битрейт : 448 Кбит/сек
Каналы : 6 каналов
Расположение каналов : Front: L C R, Side: L R, LFE
Частота : 48,0 КГц
Битовая глубина : 16 бит
Метод сжатия : С потерями
Задержка видео : -80 мс.
Размер потока : 13,2 Мбайт (7%)

Текст
Идентификатор : 189 (0xBD)-32 (0x20)
Формат : RLE
Формат/Информация : Run-length encoding
Режим смешивания : DVD-Video
Продолжительность : 3 м. 58 с.
Задержка видео : 2 с. 80 мс.

Меню

Общее
Полное имя : S:КОНЦЕРТЫ & КЛИПЫWhitney Houston - Клипография [36xVOB, 1985-2009]1986 - Greatest Love of All.vob
Формат : MPEG-PS
Размер файла : 211 Мбайт
Продолжительность : 4 м. 51 с.
Режим общего битрейта : Переменный
Общий поток : 6066 Кбит/сек

Видео
Идентификатор : 224 (0xE0)
Формат : MPEG Video
Версия формата : Version 2
Профиль формата : Main@Main
Параметр BVOP формата : Да
Параметр матрицы формата : Выборочная
Параметр GOP формата : M=3, N=15
Продолжительность : 4 м. 51 с.
Вид битрейта : Переменный
Битрейт : 5498 Кбит/сек
Ширина : 720 пикселей
Высота : 576 пикселей
Соотношение сторон : 4:3
Частота кадров : 25,000 кадров/сек
Стандарт вещания : PAL
Цветовое пространство : YUV
Субдискретизация насыщенности : 4:2:0
Битовая глубина : 8 бит
Тип развёртки : Чересстрочная
Порядок развёртки : Верхнее поле первое
Метод сжатия : С потерями
Бит/(Пиксели*Кадры) : 0.530
Размер потока : 191 Мбайт (91%)

Аудио
Идентификатор : 189 (0xBD)-129 (0x81)
Формат : AC-3
Формат/Информация : Audio Coding 3
Расширение режима : CM (complete main)
Параметр Endianness формата : Big
Режим смешивания : DVD-Video
Продолжительность : 4 м. 51 с.
Вид битрейта : Постоянный
Битрейт : 448 Кбит/сек
Каналы : 6 каналов
Расположение каналов : Front: L C R, Side: L R, LFE
Частота : 48,0 КГц
Битовая глубина : 16 бит
Метод сжатия : С потерями
Задержка видео : -80 мс.
Размер потока : 15,6 Мбайт (7%)

Меню

Общее
Полное имя : S:КОНЦЕРТЫ & КЛИПЫWhitney Houston - Клипография [36xVOB, 1985-2009]1987 - Didn't We Almost Have It All.vob
Формат : MPEG-PS
Размер файла : 296 Мбайт
Продолжительность : 6 м. 50 с.
Режим общего битрейта : Переменный
Общий поток : 6059 Кбит/сек

Видео
Идентификатор : 224 (0xE0)
Формат : MPEG Video
Версия формата : Version 2
Профиль формата : Main@Main
Параметр BVOP формата : Да
Параметр матрицы формата : Выборочная
Параметр GOP формата : M=3, N=15
Продолжительность : 6 м. 50 с.
Вид битрейта : Переменный
Битрейт : 5490 Кбит/сек
Ширина : 720 пикселей
Высота : 576 пикселей
Соотношение сторон : 4:3
Частота кадров : 25,000 кадров/сек
Стандарт вещания : PAL
Цветовое пространство : YUV
Субдискретизация насыщенности : 4:2:0
Битовая глубина : 8 бит
Тип развёртки : Чересстрочная
Порядок развёртки : Верхнее поле первое
Метод сжатия : С потерями
Бит/(Пиксели*Кадры) : 0.530
Размер потока : 269 Мбайт (91%)

Аудио
Идентификатор : 189 (0xBD)-129 (0x81)
Формат : AC-3
Формат/Информация : Audio Coding 3
Расширение режима : CM (complete main)
Параметр Endianness формата : Big
Режим смешивания : DVD-Video
Продолжительность : 6 м. 50 с.
Вид битрейта : Постоянный
Битрейт : 448 Кбит/сек
Каналы : 6 каналов
Расположение каналов : Front: L C R, Side: L R, LFE
Частота : 48,0 КГц
Битовая глубина : 16 бит
Метод сжатия : С потерями
Задержка видео : -80 мс.
Размер потока : 21,9 Мбайт (7%)

Меню

Общее
Полное имя : S:КОНЦЕРТЫ & КЛИПЫWhitney Houston - Клипография [36xVOB, 1985-2009]1987 - I Wanna Dance with Somebody (Who Loves Me) (Version 2 ).VOB
Формат : MPEG-PS
Размер файла : 329 Мбайт
Продолжительность : 4 м. 45 с.
Общий поток : 9696 Кбит/сек

Видео
Идентификатор : 224 (0xE0)
Формат : MPEG Video
Версия формата : Version 2
Профиль формата : Main@Main
Параметр BVOP формата : Да
Параметр матрицы формата : Выборочная
Продолжительность : 4 м. 45 с.
Битрейт : 8000 Кбит/сек
Ширина : 720 пикселей
Высота : 576 пикселей
Соотношение сторон : 4:3
Частота кадров : 25,000 кадров/сек
Стандарт вещания : PAL
Цветовое пространство : YUV
Субдискретизация насыщенности : 4:2:0
Битовая глубина : 8 бит
Тип развёртки : Чересстрочная
Порядок развёртки : Нижнее поле первое
Метод сжатия : С потерями
Бит/(Пиксели*Кадры) : 0.772
Размер потока : 271 Мбайт (82%)

Аудио
Идентификатор : 189 (0xBD)-160 (0xA0)
Формат : PCM
Параметр Endianness формата : Big
Параметр Sign формата : Signed
Режим смешивания : DVD-Video
Продолжительность : 4 м. 45 с.
Вид битрейта : Постоянный
Битрейт : 1536 Кбит/сек
Каналы : 2 канала
Частота : 48,0 КГц
Битовая глубина : 16 бит
Задержка видео : -165 мс.
Размер потока : 52,2 Мбайт (16%)

Меню

Общее
Полное имя : S:КОНЦЕРТЫ & КЛИПЫWhitney Houston - Клипография [36xVOB, 1985-2009]1987 - I Wanna Dance with Somebody (Who Loves Me) (Version 2, added extra shots to version 1).vob
Формат : MPEG-PS
Размер файла : 230 Мбайт
Продолжительность : 5 м. 15 с.
Режим общего битрейта : Переменный
Общий поток : 6102 Кбит/сек

Видео
Идентификатор : 224 (0xE0)
Формат : MPEG Video
Версия формата : Version 2
Профиль формата : Main@Main
Параметр BVOP формата : Да
Параметр матрицы формата : Выборочная
Параметр GOP формата : M=3, N=15
Продолжительность : 5 м. 15 с.
Вид битрейта : Переменный
Битрейт : 5532 Кбит/сек
Ширина : 720 пикселей
Высота : 576 пикселей
Соотношение сторон : 4:3
Частота кадров : 25,000 кадров/сек
Стандарт вещания : PAL
Цветовое пространство : YUV
Субдискретизация насыщенности : 4:2:0
Битовая глубина : 8 бит
Тип развёртки : Чересстрочная
Порядок развёртки : Верхнее поле первое
Метод сжатия : С потерями
Бит/(Пиксели*Кадры) : 0.534
Размер потока : 208 Мбайт (91%)

Аудио
Идентификатор : 189 (0xBD)-129 (0x81)
Формат : AC-3
Формат/Информация : Audio Coding 3
Расширение режима : CM (complete main)
Параметр Endianness формата : Big
Режим смешивания : DVD-Video
Продолжительность : 5 м. 15 с.
Вид битрейта : Постоянный
Битрейт : 448 Кбит/сек
Каналы : 6 каналов
Расположение каналов : Front: L C R, Side: L R, LFE
Частота : 48,0 КГц
Битовая глубина : 16 бит
Метод сжатия : С потерями
Задержка видео : -80 мс.
Размер потока : 16,9 Мбайт (7%)

Меню

Общее
Полное имя : S:КОНЦЕРТЫ & КЛИПЫWhitney Houston - Клипография [36xVOB, 1985-2009]1987 - So Emotional.vob
Формат : MPEG-PS
Размер файла : 176 Мбайт
Продолжительность : 4 м. 5 с.
Режим общего битрейта : Переменный
Общий поток : 6019 Кбит/сек

Видео
Идентификатор : 224 (0xE0)
Формат : MPEG Video
Версия формата : Version 2
Профиль формата : Main@Main
Параметр BVOP формата : Да
Параметр матрицы формата : Выборочная
Параметр GOP формата : M=3, N=15
Продолжительность : 4 м. 5 с.
Вид битрейта : Переменный
Битрейт : 5451 Кбит/сек
Ширина : 720 пикселей
Высота : 576 пикселей
Соотношение сторон : 4:3
Частота кадров : 25,000 кадров/сек
Стандарт вещания : PAL
Цветовое пространство : YUV
Субдискретизация насыщенности : 4:2:0
Битовая глубина : 8 бит
Тип развёртки : Чересстрочная
Порядок развёртки : Верхнее поле первое
Метод сжатия : С потерями
Бит/(Пиксели*Кадры) : 0.526
Размер потока : 160 Мбайт (91%)

Аудио
Идентификатор : 189 (0xBD)-129 (0x81)
Формат : AC-3
Формат/Информация : Audio Coding 3
Расширение режима : CM (complete main)
Параметр Endianness формата : Big
Режим смешивания : DVD-Video
Продолжительность : 4 м. 5 с.
Вид битрейта : Постоянный
Битрейт : 448 Кбит/сек
Каналы : 6 каналов
Расположение каналов : Front: L C R, Side: L R, LFE
Частота : 48,0 КГц
Битовая глубина : 16 бит
Метод сжатия : С потерями
Задержка видео : -80 мс.
Размер потока : 13,1 Мбайт (7%)

Меню

Общее
Полное имя : S:КОНЦЕРТЫ & КЛИПЫWhitney Houston - Клипография [36xVOB, 1985-2009]1988 - Where Do Broken Hearts Go.vob
Формат : MPEG-PS
Размер файла : 201 Мбайт
Продолжительность : 4 м. 38 с.
Режим общего битрейта : Переменный
Общий поток : 6043 Кбит/сек

Видео
Идентификатор : 224 (0xE0)
Формат : MPEG Video
Версия формата : Version 2
Профиль формата : Main@Main
Параметр BVOP формата : Да
Параметр матрицы формата : Выборочная
Параметр GOP формата : M=3, N=15
Продолжительность : 4 м. 38 с.
Вид битрейта : Переменный
Битрейт : 5475 Кбит/сек
Ширина : 720 пикселей
Высота : 576 пикселей
Соотношение сторон : 4:3
Частота кадров : 25,000 кадров/сек
Стандарт вещания : PAL
Цветовое пространство : YUV
Субдискретизация насыщенности : 4:2:0
Битовая глубина : 8 бит
Тип развёртки : Чересстрочная
Порядок развёртки : Верхнее поле первое
Метод сжатия : С потерями
Бит/(Пиксели*Кадры) : 0.528
Размер потока : 182 Мбайт (91%)

Аудио
Идентификатор : 189 (0xBD)-129 (0x81)
Формат : AC-3
Формат/Информация : Audio Coding 3
Расширение режима : CM (complete main)
Параметр Endianness формата : Big
Режим смешивания : DVD-Video
Продолжительность : 4 м. 38 с.
Вид битрейта : Постоянный
Битрейт : 448 Кбит/сек
Каналы : 6 каналов
Расположение каналов : Front: L C R, Side: L R, LFE
Частота : 48,0 КГц
Битовая глубина : 16 бит
Метод сжатия : С потерями
Задержка видео : -80 мс.
Размер потока : 14,9 Мбайт (7%)

Меню

Общее
Полное имя : S:КОНЦЕРТЫ & КЛИПЫWhitney Houston - Клипография [36xVOB, 1985-2009]1990 - I'm Your Baby Tonight.vob
Формат : MPEG-PS
Размер файла : 192 Мбайт
Продолжительность : 4 м. 26 с.
Режим общего битрейта : Переменный
Общий поток : 6035 Кбит/сек

Видео
Идентификатор : 224 (0xE0)
Формат : MPEG Video
Версия формата : Version 2
Профиль формата : Main@Main
Параметр BVOP формата : Да
Параметр матрицы формата : Выборочная
Параметр GOP формата : M=3, N=15
Продолжительность : 4 м. 26 с.
Вид битрейта : Переменный
Битрейт : 5467 Кбит/сек
Ширина : 720 пикселей
Высота : 576 пикселей
Соотношение сторон : 4:3
Частота кадров : 25,000 кадров/сек
Стандарт вещания : PAL
Цветовое пространство : YUV
Субдискретизация насыщенности : 4:2:0
Битовая глубина : 8 бит
Тип развёртки : Чересстрочная
Порядок развёртки : Верхнее поле первое
Метод сжатия : С потерями
Бит/(Пиксели*Кадры) : 0.527
Размер потока : 174 Мбайт (91%)

Аудио
Идентификатор : 189 (0xBD)-129 (0x81)
Формат : AC-3
Формат/Информация : Audio Coding 3
Расширение режима : CM (complete main)
Параметр Endianness формата : Big
Режим смешивания : DVD-Video
Продолжительность : 4 м. 26 с.
Вид битрейта : Постоянный
Битрейт : 448 Кбит/сек
Каналы : 6 каналов
Расположение каналов : Front: L C R, Side: L R, LFE
Частота : 48,0 КГц
Битовая глубина : 16 бит
Метод сжатия : С потерями
Задержка видео : -80 мс.
Размер потока : 14,2 Мбайт (7%)

Меню

Общее
Полное имя : S:КОНЦЕРТЫ & КЛИПЫWhitney Houston - Клипография [36xVOB, 1985-2009]1991 - All the Man That I Need.vob
Формат : MPEG-PS
Размер файла : 176 Мбайт
Продолжительность : 4 м. 3 с.
Режим общего битрейта : Переменный
Общий поток : 6065 Кбит/сек

Видео
Идентификатор : 224 (0xE0)
Формат : MPEG Video
Версия формата : Version 2
Профиль формата : Main@Main
Параметр BVOP формата : Да
Параметр матрицы формата : Выборочная
Параметр GOP формата : M=3, N=15
Продолжительность : 4 м. 3 с.
Вид битрейта : Переменный
Битрейт : 5500 Кбит/сек
Ширина : 720 пикселей
Высота : 576 пикселей
Соотношение сторон : 4:3
Частота кадров : 25,000 кадров/сек
Стандарт вещания : PAL
Цветовое пространство : YUV
Субдискретизация насыщенности : 4:2:0
Битовая глубина : 8 бит
Тип развёртки : Чересстрочная
Порядок развёртки : Верхнее поле первое
Метод сжатия : С потерями
Бит/(Пиксели*Кадры) : 0.530
Размер потока : 160 Мбайт (91%)

Аудио
Идентификатор : 189 (0xBD)-129 (0x81)
Формат : AC-3
Формат/Информация : Audio Coding 3
Расширение режима : CM (complete main)
Параметр Endianness формата : Big
Режим смешивания : DVD-Video
Продолжительность : 4 м. 3 с.
Вид битрейта : Постоянный
Битрейт : 448 Кбит/сек
Каналы : 6 каналов
Расположение каналов : Front: L C R, Side: L R, LFE
Частота : 48,0 КГц
Битовая глубина : 16 бит
Метод сжатия : С потерями
Задержка видео : -80 мс.
Размер потока : 13,0 Мбайт (7%)

Меню

Общее
Полное имя : S:КОНЦЕРТЫ & КЛИПЫWhitney Houston - Клипография [36xVOB, 1985-2009]1991 - My Name Is Not Susan.vob
Формат : MPEG-PS
Размер файла : 262 Мбайт
Продолжительность : 4 м. 15 с.
Общий поток : 8595 Кбит/сек
Библиотека кодирования : encoded by TMPGEnc (ver. 2.521.58.169)

Видео
Идентификатор : 224 (0xE0)
Формат : MPEG Video
Версия формата : Version 2
Профиль формата : Main@Main
Параметр BVOP формата : Да
Параметр матрицы формата : Выборочная
Продолжительность : 4 м. 15 с.
Битрейт : 8000 Кбит/сек
Ширина : 720 пикселей
Высота : 480 пикселей
Соотношение сторон : 4:3
Частота кадров : 29,970 кадров/сек
Стандарт вещания : NTSC
Цветовое пространство : YUV
Субдискретизация насыщенности : 4:2:0
Битовая глубина : 8 бит
Тип развёртки : Чересстрочная
Порядок развёртки : Верхнее поле первое
Метод сжатия : С потерями
Бит/(Пиксели*Кадры) : 0.772
Размер потока : 243 Мбайт (93%)
Библиотека кодирования : TMPGEnc / 2.521.58.169 2.521.58.169
Основные цвета : BT.470-2 System B, BT.470-2 System G
Характеристики трансфера : BT.470-2 System B, BT.470-2 System G
Коэффициенты матрицы : FCC

Аудио
Идентификатор : 189 (0xBD)-128 (0x80)
Формат : AC-3
Формат/Информация : Audio Coding 3
Расширение режима : CM (complete main)
Параметр Endianness формата : Big
Режим смешивания : DVD-Video
Продолжительность : 4 м. 15 с.
Вид битрейта : Постоянный
Битрейт : 448 Кбит/сек
Каналы : 2 канала
Расположение каналов : Front: L R
Частота : 48,0 КГц
Битовая глубина : 16 бит
Метод сжатия : С потерями
Размер потока : 13,6 Мбайт (5%)

Меню

Общее
Полное имя : S:КОНЦЕРТЫ & КЛИПЫWhitney Houston - Клипография [36xVOB, 1985-2009]1991 - The Star Spangled Banner.vob
Формат : MPEG-PS
Размер файла : 122 Мбайт
Продолжительность : 2 м. 49 с.
Режим общего битрейта : Переменный
Общий поток : 6040 Кбит/сек

Видео
Идентификатор : 224 (0xE0)
Формат : MPEG Video
Версия формата : Version 2
Профиль формата : Main@Main
Параметр BVOP формата : Да
Параметр матрицы формата : Выборочная
Параметр GOP формата : M=3, N=15
Продолжительность : 2 м. 49 с.
Вид битрейта : Переменный
Битрейт : 5500 Кбит/сек
Ширина : 720 пикселей
Высота : 576 пикселей
Соотношение сторон : 4:3
Частота кадров : 25,000 кадров/сек
Стандарт вещания : PAL
Цветовое пространство : YUV
Субдискретизация насыщенности : 4:2:0
Битовая глубина : 8 бит
Тип развёртки : Чересстрочная
Порядок развёртки : Верхнее поле первое
Метод сжатия : С потерями
Бит/(Пиксели*Кадры) : 0.530
Размер потока : 111 Мбайт (91%)

Аудио
Идентификатор : 189 (0xBD)-129 (0x81)
Формат : AC-3
Формат/Информация : Audio Coding 3
Расширение режима : CM (complete main)
Параметр Endianness формата : Big
Режим смешивания : DVD-Video
Продолжительность : 2 м. 49 с.
Вид битрейта : Постоянный
Битрейт : 448 Кбит/сек
Каналы : 6 каналов
Расположение каналов : Front: L C R, Side: L R, LFE
Частота : 48,0 КГц
Битовая глубина : 16 бит
Метод сжатия : С потерями
Задержка видео : -80 мс.
Размер потока : 9,05 Мбайт (7%)

Текст
Идентификатор : 189 (0xBD)-32 (0x20)
Формат : RLE
Формат/Информация : Run-length encoding
Режим смешивания : DVD-Video
Задержка видео : 1 с. 40 мс.

Меню

Общее
Полное имя : S:КОНЦЕРТЫ & КЛИПЫWhitney Houston - Клипография [36xVOB, 1985-2009]1992 - I Will Always Love You.vob
Формат : MPEG-PS
Размер файла : 198 Мбайт
Продолжительность : 4 м. 35 с.
Режим общего битрейта : Переменный
Общий поток : 6036 Кбит/сек

Видео
Идентификатор : 224 (0xE0)
Формат : MPEG Video
Версия формата : Version 2
Профиль формата : Main@Main
Параметр BVOP формата : Да
Параметр матрицы формата : Выборочная
Параметр GOP формата : M=3, N=15
Продолжительность : 4 м. 35 с.
Вид битрейта : Переменный
Битрейт : 5468 Кбит/сек
Ширина : 720 пикселей
Высота : 576 пикселей
Соотношение сторон : 4:3
Частота кадров : 25,000 кадров/сек
Стандарт вещания : PAL
Цветовое пространство : YUV
Субдискретизация насыщенности : 4:2:0
Битовая глубина : 8 бит
Тип развёртки : Чересстрочная
Порядок развёртки : Верхнее поле первое
Метод сжатия : С потерями
Бит/(Пиксели*Кадры) : 0.527
Размер потока : 179 Мбайт (91%)

Аудио
Идентификатор : 189 (0xBD)-129 (0x81)
Формат : AC-3
Формат/Информация : Audio Coding 3
Расширение режима : CM (complete main)
Параметр Endianness формата : Big
Режим смешивания : DVD-Video
Продолжительность : 4 м. 34 с.
Вид битрейта : Постоянный
Битрейт : 448 Кбит/сек
Каналы : 6 каналов
Расположение каналов : Front: L C R, Side: L R, LFE
Частота : 48,0 КГц
Битовая глубина : 16 бит
Метод сжатия : С потерями
Задержка видео : -80 мс.
Размер потока : 14,7 Мбайт (7%)

Текст
Идентификатор : 189 (0xBD)-32 (0x20)
Формат : RLE
Формат/Информация : Run-length encoding
Режим смешивания : DVD-Video
Задержка видео : 2 с. 440 мс.

Меню

Общее
Полное имя : S:КОНЦЕРТЫ & КЛИПЫWhitney Houston - Клипография [36xVOB, 1985-2009]1993 - I Have Nothing.vob
Формат : MPEG-PS
Размер файла : 209 Мбайт
Продолжительность : 4 м. 49 с.
Режим общего битрейта : Переменный
Общий поток : 6063 Кбит/сек

Видео
Идентификатор : 224 (0xE0)
Формат : MPEG Video
Версия формата : Version 2
Профиль формата : Main@Main
Параметр BVOP формата : Да
Параметр матрицы формата : Выборочная
Параметр GOP формата : M=3, N=15
Продолжительность : 4 м. 49 с.
Вид битрейта : Переменный
Битрейт : 5495 Кбит/сек
Ширина : 720 пикселей
Высота : 576 пикселей
Соотношение сторон : 4:3
Частота кадров : 25,000 кадров/сек
Стандарт вещания : PAL
Цветовое пространство : YUV
Субдискретизация насыщенности : 4:2:0
Битовая глубина : 8 бит
Тип развёртки : Чересстрочная
Порядок развёртки : Верхнее поле первое
Метод сжатия : С потерями
Бит/(Пиксели*Кадры) : 0.530
Размер потока : 190 Мбайт (91%)

Аудио
Идентификатор : 189 (0xBD)-129 (0x81)
Формат : AC-3
Формат/Информация : Audio Coding 3
Расширение режима : CM (complete main)
Параметр Endianness формата : Big
Режим смешивания : DVD-Video
Продолжительность : 4 м. 49 с.
Вид битрейта : Постоянный
Битрейт : 448 Кбит/сек
Каналы : 6 каналов
Расположение каналов : Front: L C R, Side: L R, LFE
Частота : 48,0 КГц
Битовая глубина : 16 бит
Метод сжатия : С потерями
Задержка видео : -80 мс.
Размер потока : 15,5 Мбайт (7%)

Меню

Общее
Полное имя : S:КОНЦЕРТЫ & КЛИПЫWhitney Houston - Клипография [36xVOB, 1985-2009]1993 - I'm Every Woman.vob
Формат : MPEG-PS
Размер файла : 209 Мбайт
Продолжительность : 4 м. 46 с.
Режим общего битрейта : Переменный
Общий поток : 6100 Кбит/сек

Видео
Идентификатор : 224 (0xE0)
Формат : MPEG Video
Версия формата : Version 2
Профиль формата : Main@Main
Параметр BVOP формата : Да
Параметр матрицы формата : Выборочная
Параметр GOP формата : M=3, N=15
Продолжительность : 4 м. 46 с.
Вид битрейта : Переменный
Битрейт : 5530 Кбит/сек
Ширина : 720 пикселей
Высота : 576 пикселей
Соотношение сторон : 4:3
Частота кадров : 25,000 кадров/сек
Стандарт вещания : PAL
Цветовое пространство : YUV
Субдискретизация насыщенности : 4:2:0
Битовая глубина : 8 бит
Тип развёртки : Чересстрочная
Порядок развёртки : Верхнее поле первое
Метод сжатия : С потерями
Бит/(Пиксели*Кадры) : 0.533
Размер потока : 189 Мбайт (91%)

Аудио
Идентификатор : 189 (0xBD)-129 (0x81)
Формат : AC-3
Формат/Информация : Audio Coding 3
Расширение режима : CM (complete main)
Параметр Endianness формата : Big
Режим смешивания : DVD-Video
Продолжительность : 4 м. 46 с.
Вид битрейта : Постоянный
Битрейт : 448 Кбит/сек
Каналы : 6 каналов
Расположение каналов : Front: L C R, Side: L R, LFE
Частота : 48,0 КГц
Битовая глубина : 16 бит
Метод сжатия : С потерями
Задержка видео : -80 мс.
Размер потока : 15,3 Мбайт (7%)

Меню

Общее
Полное имя : S:КОНЦЕРТЫ & КЛИПЫWhitney Houston - Клипография [36xVOB, 1985-2009]1993 - Run to You.vob
Формат : MPEG-PS
Размер файла : 188 Мбайт
Продолжительность : 4 м. 19 с.
Режим общего битрейта : Переменный
Общий поток : 6063 Кбит/сек

Видео
Идентификатор : 224 (0xE0)
Формат : MPEG Video
Версия формата : Version 2
Профиль формата : Main@Main
Параметр BVOP формата : Да
Параметр матрицы формата : Выборочная
Параметр GOP формата : M=3, N=15
Продолжительность : 4 м. 19 с.
Вид битрейта : Переменный
Битрейт : 5495 Кбит/сек
Ширина : 720 пикселей
Высота : 576 пикселей
Соотношение сторон : 4:3
Частота кадров : 25,000 кадров/сек
Стандарт вещания : PAL
Цветовое пространство : YUV
Субдискретизация насыщенности : 4:2:0
Битовая глубина : 8 бит
Тип развёртки : Чересстрочная
Порядок развёртки : Верхнее поле первое
Метод сжатия : С потерями
Бит/(Пиксели*Кадры) : 0.530
Размер потока : 170 Мбайт (91%)

Аудио
Идентификатор : 189 (0xBD)-129 (0x81)
Формат : AC-3
Формат/Информация : Audio Coding 3
Расширение режима : CM (complete main)
Параметр Endianness формата : Big
Режим смешивания : DVD-Video
Продолжительность : 4 м. 19 с.
Вид битрейта : Постоянный
Битрейт : 448 Кбит/сек
Каналы : 6 каналов
Расположение каналов : Front: L C R, Side: L R, LFE
Частота : 48,0 КГц
Битовая глубина : 16 бит
Метод сжатия : С потерями
Задержка видео : -80 мс.
Размер потока : 13,8 Мбайт (7%)

Меню

Общее
Полное имя : S:КОНЦЕРТЫ & КЛИПЫWhitney Houston - Клипография [36xVOB, 1985-2009]1993 - Something in Common.VOB
Формат : MPEG-PS
Размер файла : 281 Мбайт
Продолжительность : 4 м. 2 с.
Режим общего битрейта : Переменный
Общий поток : 9713 Кбит/сек
Библиотека кодирования : (c) 1998-2010 Womble Multimedia, Inc. / MPEG Video Wizard DVD 5.0.0.114 (01/2010) / Aug 21 2010

Видео
Идентификатор : 224 (0xE0)
Формат : MPEG Video
Версия формата : Version 2
Профиль формата : Main@Main
Параметр BVOP формата : Да
Параметр матрицы формата : По умолчанию
Параметр GOP формата : M=3, N=15
Продолжительность : 4 м. 2 с.
Вид битрейта : Переменный
Битрейт : 8000 Кбит/сек
Ширина : 720 пикселей
Высота : 480 пикселей
Соотношение сторон : 4:3
Частота кадров : 29,970 кадров/сек
Стандарт вещания : NTSC
Цветовое пространство : YUV
Субдискретизация насыщенности : 4:2:0
Битовая глубина : 8 бит
Тип развёртки : Чересстрочная
Порядок развёртки : Нижнее поле первое
Метод сжатия : С потерями
Бит/(Пиксели*Кадры) : 0.772
Размер потока : 231 Мбайт (82%)
Библиотека кодирования : (c) 1998-2010 Womble Multimedia, Inc. / MPEG Video Wizard DVD 5.0.0.114 (01/2010) / Aug 21 2010

Аудио
Идентификатор : 189 (0xBD)-160 (0xA0)
Формат : PCM
Параметр Endianness формата : Big
Параметр Sign формата : Signed
Режим смешивания : DVD-Video
Продолжительность : 4 м. 2 с.
Вид битрейта : Постоянный
Битрейт : 1536 Кбит/сек
Каналы : 2 канала
Частота : 48,0 КГц
Битовая глубина : 16 бит
Размер потока : 44,5 Мбайт (16%)

Меню

Общее
Полное имя : S:КОНЦЕРТЫ & КЛИПЫWhitney Houston - Клипография [36xVOB, 1985-2009]1994 - Queen of the Night.vob
Формат : MPEG-PS
Размер файла : 134 Мбайт
Продолжительность : 3 м. 4 с.
Режим общего битрейта : Переменный
Общий поток : 6066 Кбит/сек

Видео
Идентификатор : 224 (0xE0)
Формат : MPEG Video
Версия формата : Version 2
Профиль формата : Main@Main
Параметр BVOP формата : Да
Параметр матрицы формата : Выборочная
Параметр GOP формата : M=3, N=15
Продолжительность : 3 м. 4 с.
Вид битрейта : Переменный
Битрейт : 5500 Кбит/сек
Ширина : 720 пикселей
Высота : 576 пикселей
Соотношение сторон : 4:3
Частота кадров : 25,000 кадров/сек
Стандарт вещания : PAL
Цветовое пространство : YUV
Субдискретизация насыщенности : 4:2:0
Битовая глубина : 8 бит
Тип развёртки : Чересстрочная
Порядок развёртки : Верхнее поле первое
Метод сжатия : С потерями
Бит/(Пиксели*Кадры) : 0.530
Размер потока : 121 Мбайт (91%)

Аудио
Идентификатор : 189 (0xBD)-129 (0x81)
Формат : AC-3
Формат/Информация : Audio Coding 3
Расширение режима : CM (complete main)
Параметр Endianness формата : Big
Режим смешивания : DVD-Video
Продолжительность : 3 м. 4 с.
Вид битрейта : Постоянный
Битрейт : 448 Кбит/сек
Каналы : 6 каналов
Расположение каналов : Front: L C R, Side: L R, LFE
Частота : 48,0 КГц
Битовая глубина : 16 бит
Метод сжатия : С потерями
Задержка видео : -80 мс.
Размер потока : 9,86 Мбайт (7%)

Текст
Идентификатор : 189 (0xBD)-32 (0x20)
Формат : RLE
Формат/Информация : Run-length encoding
Режим смешивания : DVD-Video
Задержка видео : 4 с. 600 мс.

Меню

Общее
Полное имя : S:КОНЦЕРТЫ & КЛИПЫWhitney Houston - Клипография [36xVOB, 1985-2009]1995 - Exhale (Shoop shoop).vob
Формат : MPEG-PS
Размер файла : 145 Мбайт
Продолжительность : 3 м. 22 с.
Режим общего битрейта : Переменный
Общий поток : 6021 Кбит/сек

Видео
Идентификатор : 224 (0xE0)
Формат : MPEG Video
Версия формата : Version 2
Профиль формата : Main@Main
Параметр BVOP формата : Да
Параметр матрицы формата : Выборочная
Параметр GOP формата : M=3, N=15
Продолжительность : 3 м. 22 с.
Вид битрейта : Переменный
Битрейт : 5500 Кбит/сек
Ширина : 720 пикселей
Высота : 576 пикселей
Соотношение сторон : 4:3
Частота кадров : 25,000 кадров/сек
Стандарт вещания : PAL
Цветовое пространство : YUV
Субдискретизация насыщенности : 4:2:0
Битовая глубина : 8 бит
Тип развёртки : Чересстрочная
Порядок развёртки : Верхнее поле первое
Метод сжатия : С потерями
Бит/(Пиксели*Кадры) : 0.530
Размер потока : 132 Мбайт (91%)

Аудио
Идентификатор : 189 (0xBD)-129 (0x81)
Формат : AC-3
Формат/Информация : Audio Coding 3
Расширение режима : CM (complete main)
Параметр Endianness формата : Big
Режим смешивания : DVD-Video
Продолжительность : 3 м. 22 с.
Вид битрейта : Постоянный
Битрейт : 448 Кбит/сек
Каналы : 6 каналов
Расположение каналов : Front: L C R, Side: L R, LFE
Частота : 48,0 КГц
Битовая глубина : 16 бит
Метод сжатия : С потерями
Задержка видео : -80 мс.
Размер потока : 10,8 Мбайт (7%)

Текст
Идентификатор : 189 (0xBD)-32 (0x20)
Формат : RLE
Формат/Информация : Run-length encoding
Режим смешивания : DVD-Video
Задержка видео : 760 мс.

Меню

Общее
Полное имя : S:КОНЦЕРТЫ & КЛИПЫWhitney Houston - Клипография [36xVOB, 1985-2009]1996 - Count on Me.vob
Формат : MPEG-PS
Размер файла : 312 Мбайт
Продолжительность : 4 м. 29 с.
Режим общего битрейта : Переменный
Общий поток : 9710 Кбит/сек

Видео
Идентификатор : 224 (0xE0)
Формат : MPEG Video
Версия формата : Version 2
Профиль формата : Main@Main
Параметр BVOP формата : Да
Параметр матрицы формата : По умолчанию
Продолжительность : 4 м. 29 с.
Вид битрейта : Переменный
Битрейт : 8000 Кбит/сек
Ширина : 720 пикселей
Высота : 480 пикселей
Соотношение сторон : 4:3
Частота кадров : 29,970 кадров/сек
Стандарт вещания : NTSC
Цветовое пространство : YUV
Субдискретизация насыщенности : 4:2:0
Битовая глубина : 8 бит
Тип развёртки : Чересстрочная
Порядок развёртки : Верхнее поле первое
Метод сжатия : С потерями
Бит/(Пиксели*Кадры) : 0.772
Размер потока : 256 Мбайт (82%)
Основные цвета : SMPTE 170M
Характеристики трансфера : SMPTE 170M
Коэффициенты матрицы : SMPTE 170M

Аудио
Идентификатор : 189 (0xBD)-160 (0xA0)
Формат : PCM
Параметр Endianness формата : Big
Параметр Sign формата : Signed
Режим смешивания : DVD-Video
Продолжительность : 4 м. 29 с.
Вид битрейта : Постоянный
Битрейт : 1536 Кбит/сек
Каналы : 2 канала
Частота : 48,0 КГц
Битовая глубина : 16 бит
Размер потока : 49,3 Мбайт (16%)

Меню

Общее
Полное имя : S:КОНЦЕРТЫ & КЛИПЫWhitney Houston - Клипография [36xVOB, 1985-2009]1996 - I Believe In You And Me.vob
Формат : MPEG-PS
Размер файла : 177 Мбайт
Продолжительность : 4 м. 6 с.
Режим общего битрейта : Переменный
Общий поток : 6029 Кбит/сек

Видео
Идентификатор : 224 (0xE0)
Формат : MPEG Video
Версия формата : Version 2
Профиль формата : Main@Main
Параметр BVOP формата : Да
Параметр матрицы формата : Выборочная
Параметр GOP формата : M=3, N=15
Продолжительность : 4 м. 6 с.
Вид битрейта : Переменный
Битрейт : 5461 Кбит/сек
Максимальный битрейт : 4053 Кбит/сек
Ширина : 720 пикселей
Высота : 576 пикселей
Соотношение сторон : 4:3
Частота кадров : 25,000 кадров/сек
Стандарт вещания : PAL
Цветовое пространство : YUV
Субдискретизация насыщенности : 4:2:0
Битовая глубина : 8 бит
Тип развёртки : Чересстрочная
Порядок развёртки : Верхнее поле первое
Метод сжатия : С потерями
Бит/(Пиксели*Кадры) : 0.527
Размер потока : 161 Мбайт (91%)

Аудио
Идентификатор : 189 (0xBD)-129 (0x81)
Формат : AC-3
Формат/Информация : Audio Coding 3
Расширение режима : CM (complete main)
Параметр Endianness формата : Big
Режим смешивания : DVD-Video
Продолжительность : 4 м. 6 с.
Вид битрейта : Постоянный
Битрейт : 448 Кбит/сек
Каналы : 6 каналов
Расположение каналов : Front: L C R, Side: L R, LFE
Частота : 48,0 КГц
Битовая глубина : 16 бит
Метод сжатия : С потерями
Задержка видео : -80 мс.
Размер потока : 13,1 Мбайт (7%)

Меню

Общее
Полное имя : S:КОНЦЕРТЫ & КЛИПЫWhitney Houston - Клипография [36xVOB, 1985-2009]1997 - Step by Step.vob
Формат : MPEG-PS
Размер файла : 184 Мбайт
Продолжительность : 4 м. 12 с.
Режим общего битрейта : Переменный
Общий поток : 6115 Кбит/сек

Видео
Идентификатор : 224 (0xE0)
Формат : MPEG Video
Версия формата : Version 2
Профиль формата : Main@Main
Параметр BVOP формата : Да
Параметр матрицы формата : Выборочная
Параметр GOP формата : M=3, N=15
Продолжительность : 4 м. 12 с.
Вид битрейта : Переменный
Битрейт : 5545 Кбит/сек
Максимальный битрейт : 3800 Кбит/сек
Ширина : 720 пикселей
Высота : 576 пикселей
Соотношение сторон : 4:3
Частота кадров : 25,000 кадров/сек
Стандарт вещания : PAL
Цветовое пространство : YUV
Субдискретизация насыщенности : 4:2:0
Битовая глубина : 8 бит
Тип развёртки : Чересстрочная
Порядок развёртки : Верхнее поле первое
Метод сжатия : С потерями
Бит/(Пиксели*Кадры) : 0.535
Размер потока : 167 Мбайт (91%)

Аудио
Идентификатор : 189 (0xBD)-129 (0x81)
Формат : AC-3
Формат/Информация : Audio Coding 3
Расширение режима : CM (complete main)
Параметр Endianness формата : Big
Режим смешивания : DVD-Video
Продолжительность : 4 м. 12 с.
Вид битрейта : Постоянный
Битрейт : 448 Кбит/сек
Каналы : 6 каналов
Расположение каналов : Front: L C R, Side: L R, LFE
Частота : 48,0 КГц
Битовая глубина : 16 бит
Метод сжатия : С потерями
Задержка видео : -80 мс.
Размер потока : 13,5 Мбайт (7%)

Текст
Идентификатор : 189 (0xBD)-32 (0x20)
Формат : RLE
Формат/Информация : Run-length encoding
Режим смешивания : DVD-Video
Задержка видео : 1 с. 320 мс.

Меню

Общее
Полное имя : S:КОНЦЕРТЫ & КЛИПЫWhitney Houston - Клипография [36xVOB, 1985-2009]1998 - When You Believe.vob
Формат : MPEG-PS
Размер файла : 280 Мбайт
Продолжительность : 4 м. 59 с.
Режим общего битрейта : Переменный
Общий поток : 7853 Кбит/сек
Библиотека кодирования : (c) 1998-2010 Womble Multimedia, Inc. / MPEG Video Wizard DVD 5.0.0.114 (01/2010) / Apr 20 2010

Видео
Идентификатор : 224 (0xE0)
Формат : MPEG Video
Версия формата : Version 2
Профиль формата : Main@Main
Параметр BVOP формата : Да
Параметр матрицы формата : Выборочная
Параметр GOP формата : M=3, N=12
Продолжительность : 4 м. 59 с.
Вид битрейта : Переменный
Битрейт : 6160 Кбит/сек
Максимальный битрейт : 7700 Кбит/сек
Ширина : 720 пикселей
Высота : 576 пикселей
Соотношение сторон : 4:3
Частота кадров : 25,000 кадров/сек
Стандарт вещания : PAL
Цветовое пространство : YUV
Субдискретизация насыщенности : 4:2:0
Битовая глубина : 8 бит
Тип развёртки : Чересстрочная
Порядок развёртки : Верхнее поле первое
Метод сжатия : С потерями
Бит/(Пиксели*Кадры) : 0.594
Размер потока : 220 Мбайт (78%)
Библиотека кодирования : (c) 1998-2010 Womble Multimedia, Inc. / MPEG Video Wizard DVD 5.0.0.114 (01/2010) / Apr 20 2010
Основные цвета : BT.470-2 System B, BT.470-2 System G
Характеристики трансфера : BT.470-2 System B, BT.470-2 System G
Коэффициенты матрицы : SMPTE 170M

Аудио
Идентификатор : 189 (0xBD)-160 (0xA0)
Формат : PCM
Параметр Endianness формата : Big
Параметр Sign формата : Signed
Режим смешивания : DVD-Video
Продолжительность : 4 м. 59 с.
Вид битрейта : Постоянный
Битрейт : 1536 Кбит/сек
Каналы : 2 канала
Частота : 48,0 КГц
Битовая глубина : 16 бит
Размер потока : 54,8 Мбайт (20%)

Общее
Полное имя : S:КОНЦЕРТЫ & КЛИПЫWhitney Houston - Клипография [36xVOB, 1985-2009]1999 - Heartbreak Hotel.vob
Формат : MPEG-PS
Размер файла : 175 Мбайт
Продолжительность : 4 м. 3 с.
Режим общего битрейта : Переменный
Общий поток : 6023 Кбит/сек

Видео
Идентификатор : 224 (0xE0)
Формат : MPEG Video
Версия формата : Version 2
Профиль формата : Main@Main
Параметр BVOP формата : Да
Параметр матрицы формата : Выборочная
Продолжительность : 4 м. 3 с.
Вид битрейта : Переменный
Битрейт : 5500 Кбит/сек
Ширина : 720 пикселей
Высота : 576 пикселей
Соотношение сторон : 4:3
Частота кадров : 25,000 кадров/сек
Стандарт вещания : PAL
Цветовое пространство : YUV
Субдискретизация насыщенности : 4:2:0
Битовая глубина : 8 бит
Тип развёртки : Чересстрочная
Порядок развёртки : Верхнее поле первое
Метод сжатия : С потерями
Бит/(Пиксели*Кадры) : 0.530
Размер потока : 159 Мбайт (91%)

Аудио
Идентификатор : 189 (0xBD)-129 (0x81)
Формат : AC-3
Формат/Информация : Audio Coding 3
Расширение режима : CM (complete main)
Параметр Endianness формата : Big
Режим смешивания : DVD-Video
Продолжительность : 4 м. 3 с.
Вид битрейта : Постоянный
Битрейт : 448 Кбит/сек
Каналы : 6 каналов
Расположение каналов : Front: L C R, Side: L R, LFE
Частота : 48,0 КГц
Битовая глубина : 16 бит
Метод сжатия : С потерями
Задержка видео : -80 мс.
Размер потока : 13,0 Мбайт (7%)

Текст
Идентификатор : 189 (0xBD)-32 (0x20)
Формат : RLE
Формат/Информация : Run-length encoding
Режим смешивания : DVD-Video
Продолжительность : 3 м. 59 с.
Задержка видео : 720 мс.

Меню

Общее
Полное имя : S:КОНЦЕРТЫ & КЛИПЫWhitney Houston - Клипография [36xVOB, 1985-2009]1999 - I Learned from the Best.vob
Формат : MPEG-PS
Размер файла : 191 Мбайт
Продолжительность : 4 м. 24 с.
Режим общего битрейта : Переменный
Общий поток : 6063 Кбит/сек

Видео
Идентификатор : 224 (0xE0)
Формат : MPEG Video
Версия формата : Version 2
Профиль формата : Main@Main
Параметр BVOP формата : Да
Параметр матрицы формата : Выборочная
Параметр GOP формата : M=3, N=15
Продолжительность : 4 м. 24 с.
Вид битрейта : Переменный
Битрейт : 5495 Кбит/сек
Ширина : 720 пикселей
Высота : 576 пикселей
Соотношение сторон : 4:3
Частота кадров : 25,000 кадров/сек
Стандарт вещания : PAL
Цветовое пространство : YUV
Субдискретизация насыщенности : 4:2:0
Битовая глубина : 8 бит
Тип развёртки : Чересстрочная
Порядок развёртки : Верхнее поле первое
Метод сжатия : С потерями
Бит/(Пиксели*Кадры) : 0.530
Размер потока : 173 Мбайт (91%)

Аудио
Идентификатор : 189 (0xBD)-129 (0x81)
Формат : AC-3
Формат/Информация : Audio Coding 3
Расширение режима : CM (complete main)
Параметр Endianness формата : Big
Режим смешивания : DVD-Video
Продолжительность : 4 м. 24 с.
Вид битрейта : Постоянный
Битрейт : 448 Кбит/сек
Каналы : 6 каналов
Расположение каналов : Front: L C R, Side: L R, LFE
Частота : 48,0 КГц
Битовая глубина : 16 бит
Метод сжатия : С потерями
Задержка видео : -80 мс.
Размер потока : 14,1 Мбайт (7%)

Меню

Общее
Полное имя : S:КОНЦЕРТЫ & КЛИПЫWhitney Houston - Клипография [36xVOB, 1985-2009]1999 - It's Not Right But It's Okay.vob
Формат : MPEG-PS
Размер файла : 189 Мбайт
Продолжительность : 4 м. 20 с.
Режим общего битрейта : Переменный
Общий поток : 6063 Кбит/сек

Видео
Идентификатор : 224 (0xE0)
Формат : MPEG Video
Версия формата : Version 2
Профиль формата : Main@Main
Параметр BVOP формата : Да
Параметр матрицы формата : Выборочная
Параметр GOP формата : M=3, N=15
Продолжительность : 4 м. 20 с.
Вид битрейта : Переменный
Битрейт : 5500 Кбит/сек
Ширина : 720 пикселей
Высота : 576 пикселей
Соотношение сторон : 4:3
Частота кадров : 25,000 кадров/сек
Стандарт вещания : PAL
Цветовое пространство : YUV
Субдискретизация насыщенности : 4:2:0
Битовая глубина : 8 бит
Тип развёртки : Чересстрочная
Порядок развёртки : Верхнее поле первое
Метод сжатия : С потерями
Бит/(Пиксели*Кадры) : 0.530
Размер потока : 171 Мбайт (91%)

Аудио
Идентификатор : 189 (0xBD)-129 (0x81)
Формат : AC-3
Формат/Информация : Audio Coding 3
Расширение режима : CM (complete main)
Параметр Endianness формата : Big
Режим смешивания : DVD-Video
Продолжительность : 4 м. 20 с.
Вид битрейта : Постоянный
Битрейт : 448 Кбит/сек
Каналы : 6 каналов
Расположение каналов : Front: L C R, Side: L R, LFE
Частота : 48,0 КГц
Битовая глубина : 16 бит
Метод сжатия : С потерями
Задержка видео : -80 мс.
Размер потока : 13,9 Мбайт (7%)

Меню

Общее
Полное имя : S:КОНЦЕРТЫ & КЛИПЫWhitney Houston - Клипография [36xVOB, 1985-2009]1999 - My Love Is Your Love (Version 1).VOB
Формат : MPEG-PS
Размер файла : 219 Мбайт
Продолжительность : 4 м. 17 с.
Режим общего битрейта : Переменный
Общий поток : 7132 Кбит/сек

Видео
Идентификатор : 224 (0xE0)
Формат : MPEG Video
Версия формата : Version 2
Профиль формата : Main@Main
Параметр BVOP формата : Да
Параметр матрицы формата : Выборочная
Параметр GOP формата : M=3, N=15
Продолжительность : 4 м. 17 с.
Вид битрейта : Переменный
Битрейт : 5500 Кбит/сек
Ширина : 720 пикселей
Высота : 480 пикселей
Соотношение сторон : 4:3
Частота кадров : 29,970 кадров/сек
Стандарт вещания : NTSC
Цветовое пространство : YUV
Субдискретизация насыщенности : 4:2:0
Битовая глубина : 8 бит
Тип развёртки : Чересстрочная
Порядок развёртки : Верхнее поле первое
Метод сжатия : С потерями
Бит/(Пиксели*Кадры) : 0.531
Размер потока : 168 Мбайт (76%)

Аудио
Идентификатор : 189 (0xBD)-160 (0xA0)
Формат : PCM
Параметр Endianness формата : Big
Параметр Sign формата : Signed
Режим смешивания : DVD-Video
Продолжительность : 4 м. 17 с.
Вид битрейта : Постоянный
Битрейт : 1536 Кбит/сек
Каналы : 2 канала
Частота : 48,0 КГц
Битовая глубина : 16 бит
Задержка видео : -66 мс.
Размер потока : 47,2 Мбайт (22%)

Меню

Общее
Полное имя : S:КОНЦЕРТЫ & КЛИПЫWhitney Houston - Клипография [36xVOB, 1985-2009]2000 - Could I Have This Kiss Forever.vob
Формат : MPEG-PS
Размер файла : 140 Мбайт
Продолжительность : 3 м. 54 с.
Режим общего битрейта : Переменный
Общий поток : 5020 Кбит/сек

Видео
Идентификатор : 224 (0xE0)
Формат : MPEG Video
Версия формата : Version 2
Профиль формата : Main@Main
Параметр BVOP формата : Да
Параметр матрицы формата : По умолчанию
Продолжительность : 3 м. 54 с.
Вид битрейта : Переменный
Битрейт : 3384 Кбит/сек
Максимальный битрейт : 7800 Кбит/сек
Ширина : 720 пикселей
Высота : 480 пикселей
Соотношение сторон : 4:3
Частота кадров : 29,970 кадров/сек
Стандарт вещания : NTSC
Цветовое пространство : YUV
Субдискретизация насыщенности : 4:2:0
Битовая глубина : 8 бит
Тип развёртки : Чересстрочная
Порядок развёртки : Верхнее поле первое
Метод сжатия : С потерями
Бит/(Пиксели*Кадры) : 0.327
Размер потока : 94,6 Мбайт (67%)
Основные цвета : SMPTE 170M
Характеристики трансфера : SMPTE 170M
Коэффициенты матрицы : SMPTE 170M

Аудио
Идентификатор : 189 (0xBD)-160 (0xA0)
Формат : PCM
Параметр Endianness формата : Big
Параметр Sign формата : Signed
Режим смешивания : DVD-Video
Продолжительность : 3 м. 54 с.
Вид битрейта : Постоянный
Битрейт : 1536 Кбит/сек
Каналы : 2 канала
Частота : 48,0 КГц
Битовая глубина : 16 бит
Размер потока : 42,9 Мбайт (31%)

Меню

Общее
Полное имя : S:КОНЦЕРТЫ & КЛИПЫWhitney Houston - Клипография [36xVOB, 1985-2009]2000 - If I Told You That.vob
Формат : MPEG-PS
Размер файла : 176 Мбайт
Продолжительность : 4 м. 11 с.
Режим общего битрейта : Переменный
Общий поток : 5870 Кбит/сек

Видео
Идентификатор : 224 (0xE0)
Формат : MPEG Video
Версия формата : Version 2
Профиль формата : Main@Main
Параметр BVOP формата : Да
Параметр матрицы формата : Выборочная
Параметр GOP формата : M=3, N=12
Продолжительность : 4 м. 11 с.
Вид битрейта : Переменный
Битрейт : 3769 Кбит/сек
Максимальный битрейт : 7000 Кбит/сек
Ширина : 720 пикселей
Высота : 576 пикселей
Соотношение сторон : 4:3
Частота кадров : 25,000 кадров/сек
Стандарт вещания : PAL
Цветовое пространство : YUV
Субдискретизация насыщенности : 4:2:0
Битовая глубина : 8 бит
Тип развёртки : Чересстрочная
Порядок развёртки : Верхнее поле первое
Метод сжатия : С потерями
Бит/(Пиксели*Кадры) : 0.364
Размер потока : 113 Мбайт (64%)

Аудио #1
Идентификатор : 189 (0xBD)-128 (0x80)
Формат : AC-3
Формат/Информация : Audio Coding 3
Расширение режима : CM (complete main)
Параметр Endianness формата : Big
Режим смешивания : DVD-Video
Продолжительность : 4 м. 11 с.
Вид битрейта : Постоянный
Битрейт : 448 Кбит/сек
Каналы : 6 каналов
Расположение каналов : Front: L C R, Side: L R, LFE
Частота : 48,0 КГц
Битовая глубина : 16 бит
Метод сжатия : С потерями
Задержка видео : -232 мс.
Размер потока : 13,4 Мбайт (8%)

Аудио #2
Идентификатор : 189 (0xBD)-161 (0xA1)
Формат : PCM
Параметр Endianness формата : Big
Параметр Sign формата : Signed
Режим смешивания : DVD-Video
Продолжительность : 4 м. 11 с.
Вид битрейта : Постоянный
Битрейт : 1536 Кбит/сек
Каналы : 2 канала
Частота : 48,0 КГц
Битовая глубина : 16 бит
Задержка видео : -340 мс.
Размер потока : 46,1 Мбайт (26%)

Меню

Общее
Полное имя : S:КОНЦЕРТЫ & КЛИПЫWhitney Houston - Клипография [36xVOB, 1985-2009]2002 - One of Those Days.vob
Формат : MPEG-PS
Размер файла : 214 Мбайт
Продолжительность : 3 м. 59 с.
Общий поток : 7527 Кбит/сек

Видео
Идентификатор : 224 (0xE0)
Формат : MPEG Video
Версия формата : Version 2
Профиль формата : Main@Main
Параметр BVOP формата : Да
Параметр матрицы формата : По умолчанию
Параметр GOP формата : M=3, N=13
Продолжительность : 3 м. 59 с.
Битрейт : 7000 Кбит/сек
Ширина : 720 пикселей
Высота : 480 пикселей
Соотношение сторон : 4:3
Частота кадров : 29,970 кадров/сек
Стандарт вещания : NTSC
Цветовое пространство : YUV
Субдискретизация насыщенности : 4:2:0
Битовая глубина : 8 бит
Тип развёртки : Чересстрочная
Порядок развёртки : Верхнее поле первое
Метод сжатия : С потерями
Бит/(Пиксели*Кадры) : 0.676
Размер потока : 199 Мбайт (93%)
Основные цвета : SMPTE 170M
Характеристики трансфера : SMPTE 170M
Коэффициенты матрицы : SMPTE 170M

Аудио
Идентификатор : 189 (0xBD)-128 (0x80)
Формат : AC-3
Формат/Информация : Audio Coding 3
Расширение режима : CM (complete main)
Параметр Endianness формата : Big
Режим смешивания : DVD-Video
Продолжительность : 3 м. 58 с.
Вид битрейта : Постоянный
Битрейт : 384 Кбит/сек
Каналы : 2 канала
Расположение каналов : Front: L R
Частота : 48,0 КГц
Битовая глубина : 16 бит
Метод сжатия : С потерями
Размер потока : 10,9 Мбайт (5%)

Текст
Идентификатор : 189 (0xBD)-32 (0x20)
Формат : RLE
Формат/Информация : Run-length encoding
Режим смешивания : DVD-Video

Меню

Общее
Полное имя : S:КОНЦЕРТЫ & КЛИПЫWhitney Houston - Клипография [36xVOB, 1985-2009]2002 - Whatchulookinat (Rockamerica Remix).VOB
Формат : MPEG-PS
Размер файла : 205 Мбайт
Продолжительность : 5 м. 21 с.
Общий поток : 5337 Кбит/сек

Видео
Идентификатор : 224 (0xE0)
Формат : MPEG Video
Версия формата : Version 2
Профиль формата : Main@Main
Параметр BVOP формата : Да
Параметр матрицы формата : Выборочная
Параметр GOP формата : M=3, N=15
Продолжительность : 5 м. 21 с.
Битрейт : 5000 Кбит/сек
Ширина : 720 пикселей
Высота : 480 пикселей
Соотношение сторон : 4:3
Частота кадров : 29,970 кадров/сек
Стандарт вещания : NTSC
Цветовое пространство : YUV
Субдискретизация насыщенности : 4:2:0
Битовая глубина : 8 бит
Тип развёртки : Чересстрочная
Порядок развёртки : Верхнее поле первое
Метод сжатия : С потерями
Бит/(Пиксели*Кадры) : 0.483
Размер потока : 192 Мбайт (94%)

Аудио
Идентификатор : 189 (0xBD)-128 (0x80)
Формат : AC-3
Формат/Информация : Audio Coding 3
Расширение режима : CM (complete main)
Параметр Endianness формата : Big
Режим смешивания : DVD-Video
Продолжительность : 5 м. 21 с.
Вид битрейта : Постоянный
Битрейт : 224 Кбит/сек
Каналы : 2 канала
Расположение каналов : Front: L R
Частота : 48,0 КГц
Битовая глубина : 16 бит
Метод сжатия : С потерями
Задержка видео : -66 мс.
Размер потока : 8,59 Мбайт (4%)

Меню

Общее
Полное имя : S:КОНЦЕРТЫ & КЛИПЫWhitney Houston - Клипография [36xVOB, 1985-2009]2002 - Whatchulookinat.vob
Формат : MPEG-PS
Размер файла : 258 Мбайт
Продолжительность : 4 м. 11 с.
Общий поток : 8603 Кбит/сек

Видео
Идентификатор : 224 (0xE0)
Формат : MPEG Video
Версия формата : Version 2
Профиль формата : Main@Main
Параметр BVOP формата : Да
Параметр матрицы формата : По умолчанию
Параметр GOP формата : M=3, N=13
Продолжительность : 4 м. 11 с.
Битрейт : 8000 Кбит/сек
Ширина : 720 пикселей
Высота : 480 пикселей
Соотношение сторон : 4:3
Частота кадров : 29,970 кадров/сек
Стандарт вещания : NTSC
Цветовое пространство : YUV
Субдискретизация насыщенности : 4:2:0
Битовая глубина : 8 бит
Тип развёртки : Чересстрочная
Порядок развёртки : Верхнее поле первое
Метод сжатия : С потерями
Бит/(Пиксели*Кадры) : 0.772
Размер потока : 240 Мбайт (93%)
Основные цвета : SMPTE 170M
Характеристики трансфера : SMPTE 170M
Коэффициенты матрицы : SMPTE 170M

Аудио
Идентификатор : 189 (0xBD)-128 (0x80)
Формат : AC-3
Формат/Информация : Audio Coding 3
Расширение режима : CM (complete main)
Параметр Endianness формата : Big
Режим смешивания : DVD-Video
Продолжительность : 4 м. 11 с.
Вид битрейта : Постоянный
Битрейт : 448 Кбит/сек
Каналы : 6 каналов
Расположение каналов : Front: L C R, Side: L R, LFE
Частота : 48,0 КГц
Битовая глубина : 16 бит
Метод сжатия : С потерями
Размер потока : 13,5 Мбайт (5%)

Меню

Общее
Полное имя : S:КОНЦЕРТЫ & КЛИПЫWhitney Houston - Клипография [36xVOB, 1985-2009]2003 - Try It on My Own.vob
Формат : MPEG-PS
Размер файла : 277 Мбайт
Продолжительность : 4 м. 49 с.
Общий поток : 8031 Кбит/сек

Видео
Идентификатор : 224 (0xE0)
Формат : MPEG Video
Версия формата : Version 2
Профиль формата : Main@Main
Параметр BVOP формата : Да
Параметр матрицы формата : По умолчанию
Параметр GOP формата : M=3, N=13
Продолжительность : 4 м. 49 с.
Битрейт : 7500 Кбит/сек
Ширина : 720 пикселей
Высота : 480 пикселей
Соотношение сторон : 4:3
Частота кадров : 29,970 кадров/сек
Стандарт вещания : NTSC
Цветовое пространство : YUV
Субдискретизация насыщенности : 4:2:0
Битовая глубина : 8 бит
Тип развёртки : Чересстрочная
Порядок развёртки : Верхнее поле первое
Метод сжатия : С потерями
Бит/(Пиксели*Кадры) : 0.724
Размер потока : 259 Мбайт (93%)
Основные цвета : SMPTE 170M
Характеристики трансфера : SMPTE 170M
Коэффициенты матрицы : SMPTE 170M

Аудио
Идентификатор : 189 (0xBD)-128 (0x80)
Формат : AC-3
Формат/Информация : Audio Coding 3
Расширение режима : CM (complete main)
Параметр Endianness формата : Big
Режим смешивания : DVD-Video
Продолжительность : 4 м. 49 с.
Вид битрейта : Постоянный
Битрейт : 384 Кбит/сек
Каналы : 2 канала
Расположение каналов : Front: L R
Частота : 48,0 КГц
Битовая глубина : 16 бит
Метод сжатия : С потерями
Размер потока : 13,2 Мбайт (5%)

Текст
Идентификатор : 189 (0xBD)-32 (0x20)
Формат : RLE
Формат/Информация : Run-length encoding
Режим смешивания : DVD-Video

Меню

Общее
Полное имя : S:КОНЦЕРТЫ & КЛИПЫWhitney Houston - Клипография [36xVOB, 1985-2009]2009 - I Look to You.vob
Формат : MPEG-PS
Размер файла : 205 Мбайт
Продолжительность : 4 м. 34 с.
Режим общего битрейта : Переменный
Общий поток : 6248 Кбит/сек

Видео
Идентификатор : 224 (0xE0)
Формат : MPEG Video
Версия формата : Version 2
Профиль формата : Main@Main
Параметр BVOP формата : Да
Параметр матрицы формата : По умолчанию
Параметр GOP формата : M=3, N=15
Продолжительность : 4 м. 34 с.
Вид битрейта : Переменный
Битрейт : 5899 Кбит/сек
Максимальный битрейт : 9500 Кбит/сек
Ширина : 720 пикселей
Высота : 480 пикселей
Соотношение сторон : 4:3
Частота кадров : 29,970 кадров/сек
Стандарт вещания : NTSC
Цветовое пространство : YUV
Субдискретизация насыщенности : 4:2:0
Битовая глубина : 8 бит
Тип развёртки : Чересстрочная
Порядок развёртки : Нижнее поле первое
Метод сжатия : С потерями
Бит/(Пиксели*Кадры) : 0.570
Размер потока : 193 Мбайт (94%)

Аудио
Идентификатор : 192 (0xC0)
Формат : MPEG Audio
Версия формата : Version 1
Профиль формата : Layer 2
Продолжительность : 4 м. 34 с.
Вид битрейта : Постоянный
Битрейт : 224 Кбит/сек
Каналы : 2 канала
Частота : 48,0 КГц
Метод сжатия : С потерями
Размер потока : 7,34 Мбайт (4%)

Меню

Общее
Полное имя : S:КОНЦЕРТЫ & КЛИПЫWhitney Houston - Клипография [36xVOB, 1985-2009]2009 - Million Dollar Bill.VOB
Формат : MPEG-PS
Размер файла : 227 Мбайт
Продолжительность : 3 м. 55 с.
Режим общего битрейта : Переменный
Общий поток : 8070 Кбит/сек
Библиотека кодирования : encoded by TMPGEnc 4.0 XPress Version. 4.3.1.222

Видео
Идентификатор : 224 (0xE0)
Формат : MPEG Video
Версия формата : Version 2
Профиль формата : Main@Main
Параметр BVOP формата : Да
Параметр матрицы формата : Выборочная
Параметр GOP формата : M=3, N=13
Продолжительность : 3 м. 55 с.
Вид битрейта : Переменный
Битрейт : 6374 Кбит/сек
Максимальный битрейт : 8000 Кбит/сек
Ширина : 720 пикселей
Высота : 576 пикселей
Соотношение сторон : 4:3
Частота кадров : 25,000 кадров/сек
Стандарт вещания : PAL
Цветовое пространство : YUV
Субдискретизация насыщенности : 4:2:0
Битовая глубина : 8 бит
Тип развёртки : Чересстрочная
Порядок развёртки : Верхнее поле первое
Метод сжатия : С потерями
Бит/(Пиксели*Кадры) : 0.615
Размер потока : 179 Мбайт (79%)
Библиотека кодирования : TMPGEnc XPress / 4.3.1.222 4.3.1.222
Основные цвета : BT.470-2 System B, BT.470-2 System G
Характеристики трансфера : BT.470-2 System B, BT.470-2 System G
Коэффициенты матрицы : BT.470-2 System B, BT.470-2 System G

Аудио
Идентификатор : 189 (0xBD)-160 (0xA0)
Формат : PCM
Параметр Endianness формата : Big
Параметр Sign формата : Signed
Режим смешивания : DVD-Video
Продолжительность : 3 м. 55 с.
Вид битрейта : Постоянный
Битрейт : 1536 Кбит/сек
Каналы : 2 канала
Частота : 48,0 КГц
Битовая глубина : 16 бит
Размер потока : 43,1 Мбайт (19%)

Меню

[/spoiler][hr][/hr][hr][/hr]



   Похожие торренты   Торрент   Размер 
В этой теме нет новых непрочитанных сообщений. Whitney Houston - Дискография (1985-2010) MP3

16 | 11

2.78 ГБ

В этой теме нет новых непрочитанных сообщений. Whitney Houston – The Essential (2011) MP3 от Generalfilm

41 | 4

359.9 МБ

В этой теме нет новых непрочитанных сообщений. OST - Телохранитель / The Bodyguard [Whitney Houston] (1992) MP3

26 | 6

114.77 МБ

В этой теме нет новых непрочитанных сообщений. Whitney Houston - Дискография (1987-2010) FLAC

3 | 3

7.83 ГБ

В этой теме нет новых непрочитанных сообщений. Whitney Houston - One Wish: The Holiday Album 2003 (2015) FLAC | 24-bit

29 | 5

507.12 МБ

В этой теме нет новых непрочитанных сообщений. Whitney Houston - Концерт в Южной Африке (2012) SATRemux

15 | 5

1.3 ГБ

В этой теме нет новых непрочитанных сообщений. Whitney Houston - The Greatest Hits (2000) DVD9 от Brazzass

2 | 9

7.57 ГБ




Вы не можете начинать темы
Вы не можете отвечать на сообщения
Вы не можете редактировать свои сообщения
Вы не можете удалять свои сообщения
Вы не можете добавлять вложения

Перейти:  
Для Мосгорсуда, Роскомнадзора и рекламодателей: mosgorsud-torrent[собачка]yandex.ru
 Вход
ppkBB3cker v.2 © 2008-2014 @ PPK
[ Time : 0.051s | 18 Queries | GZIP : Off ]

cron