img image001 image001 image001 image001 image001 image001 image001 image001 image001 image001 image001 image001 image001 image001 image001

Planets Sun Sun Sun
Статистика раздачи
Автор: Снежана | Размер: 50.97 МБ | Добавлен: 29 июл 2013
Раздают: 18    Качают: 6
Скачать торрент
Скачать торрент
Описание торрента

СообщениеДобавлено: 29 июл 2013 

#77

Исполнитель: Звери
Оригинальное название: Просто такая сильная любовь
Год выхода: 2002
Жанр: Рок, поп-рок

Страна: Россия
Продолжительность: 00:03:18
Перевод: Не требуется

Кодек: XviD
Качество: DVDRip
Видео: XviD, 1954 Кбит/с, 25 кадр/с, 704x352
Звук: Dolby AC3 48000 Гц 2 канала (стерео), 192 Кбит/с

Описание: Клип на песню "Просто такая сильная любовь", в исполнении Российской рок-группы Звери.

Автор рипа - ivandubskoj

General
Complete name : Zveri.Prosto.takaya.silnaya.lubov.2002.DVDRip.avi
Format : AVI
Format/Info : Audio Video Interleave
File size : 51.0 MiB
Duration : 3mn 18s
Overall bit rate : 2 154 Kbps
Movie name : Звери - Просто такая сильная любовь (2002) DVDRip
Recorded date : 08.10.2012
Writing application : VirtualDubMod 1.5.10.3 (build 2550/release)
Writing library : VirtualDubMod build 2550/release
Copyright : rip by ivandubskoj

Video
ID : 0
Format : MPEG-4 Visual
Format profile : Advanced Simple@L5
Format settings, BVOP : 1
Format settings, QPel : No
Format settings, GMC : No warppoints
Format settings, Matrix : Default (MPEG)
Codec ID : XVID
Codec ID/Hint : XviD
Duration : 3mn 18s
Bit rate : 1 954 Kbps
Width : 704 pixels
Height : 352 pixels
Display aspect ratio : 2.000
Frame rate : 25.000 fps
Color space : YUV
Chroma subsampling : 4:2:0
Bit depth : 8 bits
Scan type : Progressive
Compression mode : Lossy
Bits/(Pixel*Frame) : 0.315
Stream size : 46.2 MiB (91%)
Writing library : XviD 1.2.1 (UTC 2008-12-04)

Audio
ID : 1
Format : AC-3
Format/Info : Audio Coding 3
Mode extension : CM (complete main)
Codec ID : 2000
Duration : 3mn 18s
Bit rate mode : Constant
Bit rate : 192 Kbps
Channel(s) : 2 channels
Channel positions : Front: L R
Sampling rate : 48.0 KHz
Bit depth : 16 bits
Compression mode : Lossy
Stream size : 4.54 MiB (9%)
Alignment : Split accross interleaves
Interleave, duration : 64 ms (1.60 video frames)
Interleave, preload duration : 500 ms
Title : Russian




   Похожие торренты   Торрент   Размер 
В этой теме нет новых непрочитанных сообщений. Звери - Для тебя [Клип] (2001) DVDRip от ivandubskoj

17 | 5

50.96 МБ

В этой теме нет новых непрочитанных сообщений. Звери - Напитки покрепче [Клип] (2004) DVDRip от ivandubskoj

13 | 4

58.85 МБ

В этой теме нет новых непрочитанных сообщений. Первая любовь (2009) DVDRip от ivandubskoj

57 | 16

1.46 ГБ

В этой теме нет новых непрочитанных сообщений. Нереальная любовь (2014) DVDRip от ivandubskoj

487 | 41

704.52 МБ

В этой теме нет новых непрочитанных сообщений. Нереальная любовь (2014) DVDRip от ivandubskoj

177 | 52

691.71 МБ

В этой теме нет новых непрочитанных сообщений. Новогодний концерт Венского филармонического оркестра 2002 / Neujahrskonzert der Wiener Philharmoniker 2002 (2002) BDRip 720p от ivandubskoj

32 | 1

4.38 ГБ

В этой теме нет новых непрочитанных сообщений. Звери - Бутлеги (2002-2015) MP3

27 | 9

2.88 ГБ




Вы не можете начинать темы
Вы не можете отвечать на сообщения
Вы не можете редактировать свои сообщения
Вы не можете удалять свои сообщения
Вы не можете добавлять вложения

Перейти:  
Для Мосгорсуда, Роскомнадзора и рекламодателей: mosgorsud-torrent[собачка]yandex.ru
 Вход
ppkBB3cker v.2 © 2008-2014 @ PPK
[ Time : 0.281s | 17 Queries | GZIP : Off ]

cron