img image001 image001 image001 image001 image001 image001 image001 image001 image001 image001 image001 image001 image001 image001 image001

Planets Sun Sun Sun
Статистика раздачи
Автор: Снежана | Размер: 297.38 МБ | Добавлен: 29 июл 2013
Раздают: 4    Качают: 3
Скачать торрент
Скачать торрент
Описание торрента

СообщениеДобавлено: 29 июл 2013 

#77

Название: Chris Spheeris - Maya
Исполнитель: Maya
Год: 2012
Жанр: New Age, World

Продолжительность: 00:56:15
Формат/Кодек: FLAC
Битрейт аудио: Lossless
01. Ghali
02. Lanilei
03. Sadoor
04. Narabi
05. Kradeesh
06. Soulana
07. Bata
08. Shasti


Дополнительная информация: Каталог: ES-1008-2
Код

Exact Audio Copy V1.0 beta 2 from 29. April 2011

EAC extraction logfile from 30. June 2012, 21:43

Maya / Chris Spheeris

Used drive : Optiarc DVD RW AD-7585H Adapter: 0 ID: 1

Read mode : Secure
Utilize accurate stream : Yes
Defeat audio cache : Yes
Make use of C2 pointers : No

Read offset correction : 6
Overread into Lead-In and Lead-Out : No
Fill up missing offset samples with silence : Yes
Delete leading and trailing silent blocks : No
Null samples used in CRC calculations : Yes
Used interface : Native Win32 interface for Win NT & 2000
Gap handling : Appended to previous track

Used output format : User Defined Encoder
Selected bitrate : 1024 kBit/s
Quality : High
Add ID3 tag : No
Command line compressor : D:测试软件Exact Audio CopyFlacflac.exe
Additional command line options : -8 -V -T "ARTIST=%artist%" -T "TITLE=%title%" -T "ALBUM=%albumtitle%" -T "DATE=%year%" -T "TRACKNUMBER=%tracknr%" -T "GENRE=%genre%" -T "PERFORMER=%albuminterpret%" -T "COMPOSER=%composer%" %haslyrics%--tag-from-file=LYRICS

TOC of the extracted CD

Track | Start | Length | Start sector | End sector
---------------------------------------------------------
1 | 0:00.00 | 7:14.57 | 0 | 32606
2 | 7:14.57 | 5:20.04 | 32607 | 56610
3 | 12:34.61 | 5:48.33 | 56611 | 82743
4 | 18:23.19 | 9:55.37 | 82744 | 127405
5 | 28:18.56 | 3:44.44 | 127406 | 144249
6 | 32:03.25 | 2:51.05 | 144250 | 157079
7 | 34:54.30 | 8:48.18 | 157080 | 196697
8 | 43:42.48 | 12:36.00 | 196698 | 253397

Track 1

Filename E:电影自抓自抓Chris Spheeris-Maya\01 Ghali.wav

Pre-gap length 0:00:02.00

Peak level 97.7 %
Extraction speed 1.3 X
Track quality 99.7 %
Test CRC 6368A536
Copy CRC 6368A536
Track not present in AccurateRip database
Copy OK

Track 2

Filename E:电影自抓自抓Chris Spheeris-Maya\02 Lanilei.wav

Peak level 97.7 %
Extraction speed 2.3 X
Track quality 99.9 %
Test CRC E7408499
Copy CRC E7408499
Track not present in AccurateRip database
Copy OK

Track 3

Filename E:电影自抓自抓Chris Spheeris-Maya\03 Sadoor.wav

Peak level 97.9 %
Extraction speed 2.6 X
Track quality 99.9 %
Test CRC 1374317D
Copy CRC 1374317D
Track not present in AccurateRip database
Copy OK

Track 4

Filename E:电影自抓自抓Chris Spheeris-Maya\04 Narabi.wav

Peak level 97.7 %
Extraction speed 1.7 X
Track quality 99.7 %
Test CRC 6E1050FA
Copy CRC 6E1050FA
Track not present in AccurateRip database
Copy OK

Track 5

Filename E:电影自抓自抓Chris Spheeris-Maya\05 Kradeesh.wav

Peak level 97.7 %
Extraction speed 1.1 X
Track quality 99.5 %
Test CRC 66ACEA59
Copy CRC 66ACEA59
Track not present in AccurateRip database
Copy OK

Track 6

Filename E:电影自抓自抓Chris Spheeris-Maya\06 Soulana.wav

Peak level 97.7 %
Extraction speed 1.0 X
Track quality 99.5 %
Test CRC 690898CC
Copy CRC 690898CC
Track not present in AccurateRip database
Copy OK

Track 7

Filename E:电影自抓自抓Chris Spheeris-Maya\07 Bata.wav

Peak level 97.7 %
Extraction speed 1.0 X
Track quality 99.5 %
Test CRC 32FD7AF2
Copy CRC 32FD7AF2
Track not present in AccurateRip database
Copy OK

Track 8

Filename E:电影自抓自抓Chris Spheeris-Maya\08 Shasti.wav

Suspicious position 0:00:00

Peak level 79.5 %
Extraction speed 0.6 X
Track quality 99.5 %
Test CRC E2D58E52
Copy CRC E2D58E52
Track not present in AccurateRip database
Copy finished

None of the tracks are present in the AccurateRip database

There were errors

End of status report

==== Log checksum F6128D253BEB68A67BCA983FBA3904A3CF647ABC1036A5847C51B42C5EE5041E ====



   Похожие торренты   Торрент   Размер 
В этой теме нет новых непрочитанных сообщений. Chris Spheeris - Best Hits [3CD] (1987-2001) FLAC

0 | 2

1.4 ГБ

В этой теме нет новых непрочитанных сообщений. Maya Johanna - Bells in Our Stomachs (2015) FLAC

48 | 6

191.71 МБ

В этой теме нет новых непрочитанных сообщений. Veil Of Maya - Eclipse (2012) MP3

1 | 2

67.94 МБ

В этой теме нет новых непрочитанных сообщений. Chris Spheeris & Paul Voudouris - Greatest Hits & Unreleased Masters (2017) FLAC

18 | 1

442.74 МБ

В этой теме нет новых непрочитанных сообщений. Тайна сокровищ майя / Columnof the Maya (2012) PC

7 | 2

306.13 МБ

В этой теме нет новых непрочитанных сообщений. Новые приключения пчёлки Майи / Maya the Bee [01-30 из 78] (2010-2012) SATRip | D

0 | 6

4.76 ГБ

В этой теме нет новых непрочитанных сообщений. Chris Spheeris and Paul Voudouris - Respect: Two Pianos, Four Meditations (2012), MP3 от Youtracker

2 | 2

74.82 МБ




Вы не можете начинать темы
Вы не можете отвечать на сообщения
Вы не можете редактировать свои сообщения
Вы не можете удалять свои сообщения
Вы не можете добавлять вложения

Перейти:  
 Вход
ppkBB3cker v.2 © 2008-2014 @ PPK
[ Time : 0.029s | 19 Queries | GZIP : Off ]

cron