img image001 image001 image001 image001 image001 image001 image001 image001 image001 image001 image001 image001 image001 image001 image001

Planets Sun Sun Sun
Статистика раздачи
Автор: Снежана | Размер: 295.88 МБ | Добавлен: 30 июл 2013
Раздают: 427    Качают: 65
Скачать торрент
Скачать торрент
Описание торрента

СообщениеДобавлено: 30 июл 2013 

#77

Жанр: Детский
Год выпуска: 2012
Продолжительность: 00:02:29 + 00:02:24 + 00:01:53 + 00:02:00 + 00:02:26 + 00:02:22 + 00:01:57 + 00:02:26 + 00:00:37

Перевод: Отсутствует
Cубтитры: нет
Режиссер: Реnе Rennefeld
Автор и композитор: Кристиан Шнайдер
В ролях: Gummy Bear

Описание: Сборник клипов про Медведя Гумми
Мишка Гумми (мармеладный мишка) - зеленый голубоглазый символ жевательных конфет Gummy Bear, в оранжевых панталонах и тапочках поет и танцует. Небольшая часть левого уха, в верху, отсутствует, так как, ее, скорее всего кто-то откусил. Два нижних зуба, расположены далеко друг от друга (так как вредно есть столько сладостей) и хороший животик. Однако, это не мешает ему зажигать и петь, в основном про то, какой он вкусный, хрустящий, сладкий и так далее, и тому подобное.
Остальные песни так же наделены особым глубоким смыслом - где бы ты ни находился: на футбольном матче, в бассейне, луна-парке, или же на необитаемом острове, в любой ситуации, в любой точке мира есть место для сладостей. В данный сборник не вошли клипы на русском языке, что очень даже замечательно, так как детям знать все вышеперечисленное совсем не обязательно, потому что им сразу захочется съесть что-нибудь сладкое.

Качество видео: DVDRip
Формат видео: AVI
Исходник: DVD5
Видео № 1, 2, 4, 5, 8, 9: 640x480 (1.33:1), 23.976 fps, XviD build 65 ~2015 kbps avg, 0.27 bit/pixel
Видео № 3, 6, 7: 640x368 (1.74:1), 29.970 fps, XviD build 65 ~2002 kbps avg, 0.28 bit/pixel
Аудио: 48 kHz, AC3 Dolby Digital, 2/0 (L,R) ch, ~192 kbps

01. I am a gummy bear (the gummy bear song)
02. Eu sou o gummy bear
03. Go for the goal
04. Choco choco choco
05. Nuki nuki (the nuki song)
06. Mr mister gummy bear
07. Bubble up
08. La la i love you
09. You know its christimas

Общее
Полное имя : E:My_ripGummy_bear.[Youtracker].ot_Дядя_Лёша\01.I.am.a.gummy.bear.(the.gummy.bear.song).avi
Формат : AVI
Формат/Информация : Audio Video Interleave
Размер файла : 39,6 Мбайт
Продолжительность : 2 м. 29 с.
Общий поток : 2217 Кбит/сек
Название фильма : 01.I.am.a.gummy.bear.(the.gummy.bear.song)
Программа кодирования : VirtualDubMod 1.5.10.3 | www.virtualdub-fr.org || (build 2550/release)
Правообладатель : Youtracker

Видео
Идентификатор : 0
Формат : MPEG-4 Visual
Профиль формата : Advanced Simple@L5
Параметр BVOP формата : 2
Параметр QPel формата : Нет
Параметр GMC формата : Без точки перехода
Параметр матрицы формата : Выборочная
Идентификатор кодека : XVID
Идентификатор кодека/Подсказка : XviD
Продолжительность : 2 м. 29 с.
Битрейт : 2015 Кбит/сек
Ширина : 640 пикселей
Высота : 480 пикселей
Соотношение сторон : 4:3
Частота кадров : 23,976 кадра/сек
Цветовое пространство : YUV
Субдискретизация насыщенности : 4:2:0
Битовая глубина : 8 бит
Тип развёртки : Прогрессивная
Метод сжатия : С потерями
Бит/(Пиксели*Кадры) : 0.274
Размер потока : 36,0 Мбайт (91%)
Библиотека кодирования : XviD 65

Аудио
Идентификатор : 1
Формат : AC-3
Формат/Информация : Audio Coding 3
Расширение режима : CM (complete main)
Параметр Endianness формата : Big
Идентификатор кодека : 2000
Продолжительность : 2 м. 29 с.
Вид битрейта : Постоянный
Битрейт : 192 Кбит/сек
Каналы : 2 канала
Расположение каналов : Front: L R
Частота : 48,0 КГц
Битовая глубина : 16 бит
Метод сжатия : С потерями
Размер потока : 3,43 Мбайт (9%)
Выравнивание : Разделение по промежуткам
Продолжительность промежутка : 42 мс. (1,00 видеокадр)
Время предзагрузки промежутка : 500 мс.







Раздача от:



   Похожие торренты   Торрент   Размер 
В этой теме нет новых непрочитанных сообщений. Медведь Йоги / Yogi Bear (2010) BDRip от Gummy

3 | 2

1.71 ГБ

В этой теме нет новых непрочитанных сообщений. Оранжевый мишка / The Tangerine Bear: Home in Time for Christmas! (2000) DVD5 | L

5 | 6

3.04 ГБ

В этой теме нет новых непрочитанных сообщений. Смелого пуля боится, или Мишка принимает бой (1970) DVDRip-AVC от Youtracker

32 | 3

1.46 ГБ

В этой теме нет новых непрочитанных сообщений. Смелого пуля боится, или Мишка принимает бой (1970) DVDRip от Youtracker

10 | 3

744.68 МБ

В этой теме нет новых непрочитанных сообщений. Садись рядом, Мишка! (1977) DVDRip

187 | 4

962.23 МБ

В этой теме нет новых непрочитанных сообщений. Плюшевый мишка / L'ours en peluche (1994) DVDRip

44 | 33

1.37 ГБ

В этой теме нет новых непрочитанных сообщений. Легенды ночных стражей / Legend of the Guardians: The Owls of Ga'Hoole (2010) BDRip от Gummy

8 | 2

1.71 ГБ




Вы не можете начинать темы
Вы не можете отвечать на сообщения
Вы не можете редактировать свои сообщения
Вы не можете удалять свои сообщения
Вы не можете добавлять вложения

Перейти:  
Для Мосгорсуда, Роскомнадзора и рекламодателей: mosgorsud-torrent[собачка]yandex.ru
 Вход
ppkBB3cker v.2 © 2008-2014 @ PPK
[ Time : 0.044s | 15 Queries | GZIP : Off ]

Торрент трекер RUTOR.IN, Не можете зайти на rutor.org? Какой новый адрес рутор? Какое зеркало рутор? Не работает rutor.org и зеркала? Тогда наш торрент специально для вас. Rutor.in неофициальное зеркало rutor. В случае если у Вас заблокирован rutor или вдруг Вы не можете на него зайти, то Вы без труда сможете скачать бесплатно и без рекламы последние новинки кино, игр, сериалов и прочего у нас, на Rutor.in. Не нужно использовать прокси, чтобы зайти на рутор, достаточно воспользоваться нашим ресурсом. Все новые фильмы, игры, сериалы, книги и музыка за 2013 и 2014 годы через торрент бесплатно. Скачивайте фильмы в хорошем качестве, игры для пк, xbox, playstation без регистрации. У нас вы найдете новые Зарубежные сериалы и Русские сериалы 2013, 2014, 2015 годов. Оставайтесь с нами, качайте любимые фильмы, игры, сериалы, книги и музыку.
cron