img image001 image001 image001 image001 image001 image001 image001 image001 image001 image001 image001 image001 image001 image001 image001
Planets Sun Sun Sun
Статистика раздачи
Автор: Снежана | Размер: 574.52 МБ | Добавлен: 30 июл 2013
Раздают: 78    Качают: 3
Скачать торрент
Скачать торрент
Описание торрента

СообщениеДобавлено: 30 июл 2013 

#77

Жанр: Score
Год издания: 2010
Производитель диска: Россия
Издатель (лейбл): Союз
Номер по каталогу: SZCD 701610
Аудиокодек: FLAC
Тип рипа: image+.cue
Битрейт аудио: lossless
Продолжительность: 01:05:16
Источник: bruk67
Наличие сканов: есть

Трэклист:
01. Кино и Игорь Вдовин - Звезда по имени Солнце (3:11)
02. Кино и Игорь Вдовин - Дальше действовать будем мы (4:09)
03. Messer Chups - Шапито буги (1:57)
04. Игорь Вдовин и Юрий Каспарян - Дорога (2:36)
05. Messer Chups - Шагающий мертвец (1:14)
06. Игорь Вдовин - Старый винил (1:14)
07. Игорь Вдовин и Юрий Каспарян - Ты изменилась (2:29)
08. Messer Chups - Ретрокаин (2:11)
09. Игорь Вдовин - Сегодня получше (2:19)
10. Игорь Вдовин - Парламент (1:32)
11. Messer Chups - Твист неформалов (3:24)
12. Виктор Цой и Юрий Каспарян - Море (2:14)
13. Кино - Побег (1:55)
14. Кино и Игорь Вдовин - Бошетунмай (3:56)
15. Игорь Вдовин - Ломки (4:23)
16. Кино и Игорь Вдовин - Киномеханика (3:48)
17. Игорь Вдовин - Эстонский блюз (1:05)
18. Кино - Звуки Му (1:47)
19. Кино - Спартак (1:22)
20. Ю-Питер - Дети минут (4:56)
21. Кино и Игорь Вдовин - Группа крови (4:33)
22. Игорь Вдовин - Неаполитанская (1:17)
23. Messer Chups - Zubi Zubi Zindella + bonus (7:42)

Код:
Exact Audio Copy V0.99 prebeta 5 from 4. May 2009

EAC extraction logfile from 22. September 2010, 19:56

Various / Игла. Remix

Used drive  : PIONEER DVD-RW  DVR-212   Adapter: 8  ID: 0

Read mode               : Secure
Utilize accurate stream : Yes
Defeat audio cache      : Yes
Make use of C2 pointers : No

Read offset correction                      : 48
Overread into Lead-In and Lead-Out          : No
Fill up missing offset samples with silence : Yes
Delete leading and trailing silent blocks   : No
Null samples used in CRC calculations       : Yes
Used interface                              : Installed external ASPI interface

Used output format : Internal WAV Routines
Sample format      : 44.100 Hz; 16 Bit; Stereo

TOC of the extracted CD

     Track |   Start  |  Length  | Start sector | End sector
    ---------------------------------------------------------
        1  |  0:00.00 |  3:10.42 |         0    |    14291
        2  |  3:10.42 |  4:09.09 |     14292    |    32975
        3  |  7:19.51 |  1:56.46 |     32976    |    41721
        4  |  9:16.22 |  2:35.73 |     41722    |    53419
        5  | 11:52.20 |  1:14.19 |     53420    |    58988
        6  | 13:06.39 |  1:13.45 |     58989    |    64508
        7  | 14:20.09 |  2:29.30 |     64509    |    75713
        8  | 16:49.39 |  2:11.32 |     75714    |    85570
        9  | 19:00.71 |  2:19.16 |     85571    |    96011
       10  | 21:20.12 |  1:32.24 |     96012    |   102935
       11  | 22:52.36 |  3:24.08 |    102936    |   118243
       12  | 26:16.44 |  2:14.19 |    118244    |   128312
       13  | 28:30.63 |  1:55.01 |    128313    |   136938
       14  | 30:25.64 |  3:55.62 |    136939    |   154625
       15  | 34:21.51 |  4:23.27 |    154626    |   174377
       16  | 38:45.03 |  3:47.41 |    174378    |   191443
       17  | 42:32.44 |  1:05.15 |    191444    |   196333
       18  | 43:37.59 |  1:46.69 |    196334    |   204352
       19  | 45:24.53 |  1:22.33 |    204353    |   210535
       20  | 46:47.11 |  4:56.19 |    210536    |   232754
       21  | 51:43.30 |  4:33.03 |    232755    |   253232
       22  | 56:16.33 |  1:16.68 |    253233    |   259000
       23  | 57:33.26 |  7:42.24 |    259001    |   293674

Range status and errors

Selected range

     Filename J:MP3VA - Игла. Remix (Soundtrack) 2010 (FLAC)Various - Игла. Remix.wav

     Peak level 99.8 %
     Range quality 100.0 %
     Test CRC 29CE9437
     Copy CRC 29CE9437
     Copy OK

No errors occurred

AccurateRip summary

Track  1  not present in database
Track  2  not present in database
Track  3  not present in database
Track  4  not present in database
Track  5  not present in database
Track  6  not present in database
Track  7  not present in database
Track  8  not present in database
Track  9  not present in database
Track 10  not present in database
Track 11  not present in database
Track 12  not present in database
Track 13  not present in database
Track 14  not present in database
Track 15  not present in database
Track 16  not present in database
Track 17  not present in database
Track 18  not present in database
Track 19  not present in database
Track 20  not present in database
Track 21  not present in database
Track 22  not present in database
Track 23  not present in database

None of the tracks are present in the AccurateRip database

End of status report



Код:
REM GENRE Soundtrack
REM DATE 2010
REM DISCID 440F4B17
REM COMMENT "ExactAudioCopy v0.99pb5"
PERFORMER "Various"
TITLE "Игла. Remix"
FILE "Various - Игла. Remix.flac" WAVE
  TRACK 01 AUDIO
    TITLE "Звезда по имени Солнце"
    PERFORMER "Кино и Игорь Вдовин"
    INDEX 01 00:00:00
  TRACK 02 AUDIO
    TITLE "Дальше действовать будем мы"
    PERFORMER "Кино и Игорь Вдовин"
    INDEX 01 03:10:42
  TRACK 03 AUDIO
    TITLE "Шапито буги"
    PERFORMER "Messer Chups"
    INDEX 01 07:19:51
  TRACK 04 AUDIO
    TITLE "Дорога"
    PERFORMER "Игорь Вдовин и Юрий Каспарян"
    INDEX 01 09:16:22
  TRACK 05 AUDIO
    TITLE "Шагающий мертвец"
    PERFORMER "Messer Chups"
    INDEX 01 11:52:20
  TRACK 06 AUDIO
    TITLE "Старый винил"
    PERFORMER "Игорь Вдовин"
    INDEX 01 13:06:39
  TRACK 07 AUDIO
    TITLE "Ты изменилась"
    PERFORMER "Игорь Вдовин и Юрий Каспарян"
    INDEX 01 14:20:09
  TRACK 08 AUDIO
    TITLE "Ретрокаин"
    PERFORMER "Messer Chups"
    INDEX 01 16:49:39
  TRACK 09 AUDIO
    TITLE "Сегодня получше"
    PERFORMER "Игорь Вдовин"
    INDEX 01 19:00:71
  TRACK 10 AUDIO
    TITLE "Парламент"
    PERFORMER "Игорь Вдовин"
    INDEX 01 21:20:12
  TRACK 11 AUDIO
    TITLE "Твист неформалов"
    PERFORMER "Messer Chups"
    INDEX 01 22:52:36
  TRACK 12 AUDIO
    TITLE "Море"
    PERFORMER "Виктор Цой и Юрий Каспарян"
    INDEX 01 26:16:44
  TRACK 13 AUDIO
    TITLE "Побег"
    PERFORMER "Кино"
    INDEX 01 28:30:63
  TRACK 14 AUDIO
    TITLE "Бошетунмай"
    PERFORMER "Кино и Игорь Вдовин"
    INDEX 01 30:25:64
  TRACK 15 AUDIO
    TITLE "Ломки"
    PERFORMER "Игорь Вдовин"
    INDEX 01 34:21:51
  TRACK 16 AUDIO
    TITLE "Киномеханика"
    PERFORMER "Кино и Игорь Вдовин"
    INDEX 01 38:45:03
  TRACK 17 AUDIO
    TITLE "Эстонский блюз"
    PERFORMER "Игорь Вдовин"
    INDEX 01 42:32:44
  TRACK 18 AUDIO
    TITLE "Звуки Му"
    PERFORMER "Кино"
    INDEX 01 43:37:59
  TRACK 19 AUDIO
    TITLE "Спартак"
    PERFORMER "Кино"
    INDEX 01 45:24:53
  TRACK 20 AUDIO
    TITLE "Дети минут"
    PERFORMER "Ю-Питер"
    INDEX 01 46:47:11
  TRACK 21 AUDIO
    TITLE "Группа крови"
    PERFORMER "Кино и Игорь Вдовин"
    INDEX 01 51:43:30
  TRACK 22 AUDIO
    TITLE "Неаполитанская"
    PERFORMER "Игорь Вдовин"
    INDEX 01 56:16:33
  TRACK 23 AUDIO
    TITLE "Zubi Zubi Zindella + bonus"
    PERFORMER "Messer Chups"
    INDEX 01 57:33:26




   Похожие торренты   Торрент   Размер 
В этой теме нет новых непрочитанных сообщений. Сборник - Игла Remix OST (2010) FLAC

0 | 2

459.16 МБ

В этой теме нет новых непрочитанных сообщений. Игла Remix (2010) Blu-Ray Remux

0 | 6

26.7 ГБ

В этой теме нет новых непрочитанных сообщений. Игла Remix (2010) DVDRip

56 | 5

1.37 ГБ

В этой теме нет новых непрочитанных сообщений. Игла Remix (2010) BDRip 720p

17 | 4

5.51 ГБ

В этой теме нет новых непрочитанных сообщений. Игла Remix (2010) SATRip - КинозалSAT

0 | 2

1.37 ГБ

В этой теме нет новых непрочитанных сообщений. OST - Меченосец [Оригинальный Саундтрек] [Игорь Вдовин] (2006) MP3

0 | 2

68.2 МБ

В этой теме нет новых непрочитанных сообщений. OST - Как приручить дракона / How To Train Your Dragon [Original Soundtrack] [John Powell] (2010) FLAC, MP3

10 | 5

592.78 МБ




Вы не можете начинать темы
Вы не можете отвечать на сообщения
Вы не можете редактировать свои сообщения
Вы не можете удалять свои сообщения
Вы не можете добавлять вложения

Перейти:  
Для Мосгорсуда, Роскомнадзора и рекламодателей: mosgorsud-torrent[собачка]yandex.ru
 Вход
ppkBB3cker v.2 © 2008-2014 @ PPK
[ Time : 0.054s | 17 Queries | GZIP : Off ]

cron