img image001 image001 image001 image001 image001 image001 image001 image001 image001 image001 image001 image001 image001 image001 image001 image001

Planets Sun Sun Sun
Статистика раздачи
Автор: Nickolas3434 | Размер: 7.86 ГБ | Добавлен: 01 ноя 2014
Раздают: 64    Качают: 18
Скачать торрент
Скачать торрент
Описание торрента

СообщениеДобавлено: 01 ноя 2014 

Информация о фильме
    Название: Лунный свет
    Оригинальное: Lichtmond
    Год выхода: 2010
    Выпущено: AL!VE
    Страна: Германия
    Жанр: Документальный, видовой, музыка, релакс
    Продолжительность: 00:50:14
    Перевод: Не требуется
    Режиссер: Джорджио Коппехели, Мартин Коппехели




Описание
    Братья Джорджио и Мартин Коппехели (Avenue Music), авторы пользующейся заслуженной популярностью среди любителей многоканальной музыки, и не только, серии Ambra, представляют новый проект - "Lichtmond" ("Лунный свет").Визуальная часть представляет собой анимацию испанского художника-мультипликатора Diego M. Bonati, студия Imago-D - фантастические миры, созданные специально для "Lichtmond".
01. Erwachen (Weltraum)
02. Morgenrot (Inselwelt)
03. Sounds Of Distance (Wustenwelt)
04. Orangenzweig (Stein- und Kristallwelt)
05. Wenn des Mondes Strahl (Nacht- und Vulkanwelt)
06. Shine On Me (Unterwasserwelt)
07. Serenity (Eiswelt)
08. Flying Over The Ocean (Wasserwelt)
09. Fruhlingstanzerin (Bildmedley durch alle Welten)
10. Abendrot (Weltraum)



Файл
    Кодек: H.264
    Формат: MKV
    Качество: BDRemux 1080p (Источник: Blu-ray)
    Видео: MPEG-4 AVC (16:9) 1920x1080 pix, 23.976 fps, 17995 kbps
    Аудио I: Flac (2.0) 24 bit, 96 kHz, Lossless (German)
    Аудио II: DTS Digital Surround (5.1) 24 bit, 48 kHz, 1509 kbps (German)
    Аудио III: Dolby Digital (5.1) 16 bit, 48 kHz, 448 kbps (German)
    Меню: Сохранены оригинальные чаптеры Blu-ray

General
Unique ID : 218990239359941938338704108873363869494 (0xA4BFFC674BFAEC79B7462C5ECD55CF36)
Format : Matroska
Format version : Version 2
File size : 7.86 GiB
Duration : 50mn 14s
Overall bit rate mode : Variable
Overall bit rate : 22.4 Mbps
Movie name : Лунный свет (2010) BDRemux (1080p)
Encoded date : UTC 2014-10-30 06:22:09
Writing application : mkvmerge v5.8.0 ('No Sleep / Pillow') built on Sep 2 2012 15:37:04
Writing library : libebml v1.2.3 + libmatroska v1.3.0
Video
ID : 1
Format : AVC
Format/Info : Advanced Video Codec
Format profile : High@L4.1
Format settings, CABAC : Yes
Format settings, ReFrames : 4 frames
Codec ID : V_MPEG4/ISO/AVC
Duration : 50mn 14s
Bit rate mode : Variable
Maximum bit rate : 20.0 Mbps
Width : 1 920 pixels
Height : 1 080 pixels
Display aspect ratio : 16:9
Frame rate mode : Constant
Frame rate : 23.976 fps
Color space : YUV
Chroma subsampling : 4:2:0
Bit depth : 8 bits
Scan type : Progressive
Title : Release by Alex260680
Language : German
Default : Yes
Forced : No
Audio #1
ID : 2
Format : FLAC
Format/Info : Free Lossless Audio Codec
Codec ID : A_FLAC
Duration : 50mn 14s
Bit rate mode : Variable
Channel(s) : 2 channels
Sampling rate : 96.0 KHz
Bit depth : 24 bits
Title : Flac 2.0
Writing library : libFLAC 1.2.1 (UTC 2007-09-17)
Language : German
Default : Yes
Forced : No
Audio #2
ID : 3
Format : DTS
Format/Info : Digital Theater Systems
Mode : 16
Format settings, Endianness : Big
Codec ID : A_DTS
Duration : 50mn 14s
Bit rate mode : Constant
Bit rate : 1 509 Kbps
Channel(s) : 6 channels
Channel positions : Front: L C R, Side: L R, LFE
Sampling rate : 48.0 KHz
Bit depth : 24 bits
Compression mode : Lossy
Stream size : 542 MiB (7%)
Title : DTS Digital Surround 5.1
Language : German
Default : No
Forced : No
Audio #3
ID : 4
Format : AC-3
Format/Info : Audio Coding 3
Mode extension : CM (complete main)
Format settings, Endianness : Big
Codec ID : A_AC3
Duration : 50mn 14s
Bit rate mode : Constant
Bit rate : 448 Kbps
Channel(s) : 6 channels
Channel positions : Front: L C R, Side: L R, LFE
Sampling rate : 48.0 KHz
Bit depth : 16 bits
Compression mode : Lossy
Stream size : 161 MiB (2%)
Title : Dolby Digital 5.1
Language : German
Default : No
Forced : No
Menu
00:00:00.000 : en:Erwachen (Weltraum)
00:01:37.139 : en:Morgenrot (Inselwelt)
00:06:25.093 : en:Sounds Of Distance (Wustenwelt)
00:10:50.567 : en:Orangenzweig (Stein- und Kristallwelt)
00:17:00.061 : en:Wenn des Mondes Strahl (Nacht- und Vulkanwelt)
00:22:19.547 : en:Shine On Me (Unterwasserwelt)
00:28:20.198 : en:Serenity (Eiswelt)
00:34:33.655 : en:Flying Over The Ocean (Wasserwelt)
00:40:56.037 : en:Fruhlingstanzerin (Bildmedley durch alle Welten)
00:46:47.471 : en:Abendrot (Weltraum)
00:48:47.383 : en:End Credits



   Похожие торренты   Торрент   Размер 
В этой теме нет новых непрочитанных сообщений. Лунный свет 3: Дни вечности / Lichtmond 3: Days of Eternity (2014) BDRemux 1080p

172 | 48

7.76 ГБ

В этой теме нет новых непрочитанных сообщений. Лунный свет 2: Вселенная света / Lichtmond 2: Universe of Light (2012) BDRemux 1080p

69 | 19

7.56 ГБ

В этой теме нет новых непрочитанных сообщений. Лунный свет / Lichtmond (2010) BDRip 1080p

4 | 17

6.02 ГБ

В этой теме нет новых непрочитанных сообщений. Лунный свет / Lichtmond (2010) BDRip 1080p | 3D-Video

29 | 5

5.07 ГБ

В этой теме нет новых непрочитанных сообщений. Лунный свет / Lichtmond (2010) BD3D 1080p | 3D-Video

7 | 8

21.19 ГБ

В этой теме нет новых непрочитанных сообщений. Лунный свет / Lichtmond (2010) BDRip 1080p от Ash61 | 3D-Video | halfOU

161 | 35

7.02 ГБ

В этой теме нет новых непрочитанных сообщений. Лунный свет / Lichtmond (2010) BDRip-AVC от ExKinoRay

9 | 2

1.14 ГБ




Вы не можете начинать темы
Вы не можете отвечать на сообщения
Вы не можете редактировать свои сообщения
Вы не можете удалять свои сообщения
Вы не можете добавлять вложения

Перейти:  
 Вход
ppkBB3cker v.2 © 2008-2014 @ PPK
[ Time : 0.023s | 16 Queries | GZIP : Off ]

cron