img image001 image001 image001 image001 image001 image001 image001 image001 image001 image001 image001 image001 image001 image001 image001

Planets Sun Sun Sun
Статистика раздачи
Автор: Nickolas3434 | Размер: 2.03 ГБ | Добавлен: 20 дек 2014
Раздают: 660    Качают: 22
Скачать торрент
Скачать торрент
Описание торрента

СообщениеДобавлено: 20 дек 2014 

Информация о фильме
Название: Ани Лорак - Каролина Live Show
Год выхода: 2014
Жанр: Поп-музыка
О фильме:
Юбилейный концерт «Каролина» – это история в песнях о маленькой девочке из крохотного городка, которая не имела за плечами ничего, кроме желания стать певицей, которая не смотря ни на что, смогла осуществить свою заветную мечту. Лучшие песни певицы, только любимые хиты в современных обработках, где Ани Лорак предстала в совершенно новом для себя амплуа. Каждая песня программы – отдельный номер, где участвует балет и меняются яркие костюмы. Все взаимосвязано, все переплетено единой нитью, одним дыханием шоу «Каролина». Частью концертной программы стали прекрасные творческие тандемы и музыкальные импровизации. В концерте приняли участие известные артисты – близкие друзья певицы. Филипп Киркоров, Григорий Лепс, Валерий Меладзе, Сергей Лазарев и Тимур Родригез исполнят с Ани дуэтные композиции. Особое место в программе занимают песни легендарного композитора Владимира Ивасюка, которые Ани исполнила в сопровождении вокального бэнда ManSound. Певица родилась в том самом доме, где родился украинский поет. Наверное это и было знаком, еще тогда, для маленькой девочки Каролины, что ее мечта стать певицей осуществится. Шоу «Каролина» – это настроение, это музыка, это неповторимый голос певицы, которая прошла не простой путь. Это история, которая не оставит равнодушным никого, история, которая дарит песни, которые зажигают сердца, сердца всех, кто слышит чарующий голос Ани Лорак.
Страна: Украина
Студия: Moon Records
Продолжительность: 01:58:50
Перевод: Не требуется
Файл
Кодек: XviD
Качество: DVDRip
Видео: 2238 Кбит/с, 704x400, 25.000 кадр/с
Звук: AC3, 2 ch, 192 Кбит/с
Полное имя : Ani.Lorak.-Karolina-Live.2014.XviD.DVDRip.avi
Формат : AVI
Формат/Информация : Audio Video Interleave
Профиль формата : OpenDML
Размер файла : 2,03 Гбайт
Продолжительность : 1 ч. 58 м.
Общий поток : 2443 Кбит/сек
Программа кодирования : VirtualDubMod 1.5.10.3 | www.virtualdub-fr.org || (build 2550/release)
Библиотека кодирования : VirtualDubMod build 2550/release
Видео
Идентификатор : 0
Формат : MPEG-4 Visual
Профиль формата : Advanced Simple@L5
Параметр BVOP формата : 1
Параметр QPel формата : Нет
Параметр GMC формата : Без точки перехода
Параметр матрицы формата : Выборочная
Идентификатор кодека : XVID
Идентификатор кодека/Подсказка : XviD
Продолжительность : 1 ч. 58 м.
Битрейт : 2238 Кбит/сек
Ширина : 704 пикселя
Высота : 400 пикселей
Соотношение сторон : 16:9
Частота кадров : 25,000 кадров/сек
Цветовое пространство : YUV
Субдискретизация насыщенности : 4:2:0
Битовая глубина : 8 бит
Тип развёртки : Прогрессивная
Метод сжатия : С потерями
Бит/(Пиксели*Кадры) : 0.318
Размер потока : 1,86 Гбайт (92%)
Библиотека кодирования : XviD 64
Аудио
Идентификатор : 1
Формат : AC-3
Формат/Информация : Audio Coding 3
Расширение режима : CM (complete main)
Параметр Endianness формата : Big
Идентификатор кодека : 2000
Продолжительность : 1 ч. 58 м.
Вид битрейта : Постоянный
Битрейт : 192 Кбит/сек
Каналы : 2 канала
Расположение каналов : Front: L R
Частота : 48,0 КГц
Битовая глубина : 16 бит
Метод сжатия : С потерями
Размер потока : 163 Мбайт (8%)
Выравнивание : Разделение по промежуткам
Продолжительность промежутка : 40 мс. (1,00 видеокадр)
Время предзагрузки промежутка : 500 мс.
01. Птица
02. Обними меня
03. Зажигай сердце
04. Спроси
05. Верни мою любовь (дуэт с В. Меладзе)
06. Не дели любовь
07. Искала
08. Солнце
09. Гимн уходящим мечтам (дуэт с Ф. Киркоровым)
10. С первого взгляда
11. Увлечение (дуэт с Т. Родригезом)
12. Для тебя
13. Три звичних слова
14. Без тебе
15. Я не здамся без бою (дуэт с С. Лазаревым)
16. Запроси мене у сни
17. Водограй
18. Я пiду в далекi гори
19. Балада про мальви
20. Кленовий вогонь
21. Там, де ти є
22. Зеркала
23. Shady Lady
24. Зеркала (дуэт с Г. Лепсом)
25. Оранжевые сны
26. Обними меня крепче
27. Забирай рай
28. Я с тобой
29. Я вернусь
30. Попурри





   Похожие торренты   Торрент   Размер 
В этой теме нет новых непрочитанных сообщений. Ани Лорак - Каролина Live Show (2014) DVDRip-AVC

148 | 18

1.72 ГБ

В этой теме нет новых непрочитанных сообщений. Ани Лорак - Солнце Live (2010) DVDRip от ExKinoRay

5 | 3

1.37 ГБ

В этой теме нет новых непрочитанных сообщений. Ани Лорак - Солнце Live (2010) DVD5

9 | 6

4.32 ГБ

В этой теме нет новых непрочитанных сообщений. Ани Лорак / Ані Лорак - 10 альбомов, 2 сборника, 1 сингл + бонус (1996-2011) MP3

6 | 7

1.54 ГБ

В этой теме нет новых непрочитанных сообщений. Ани Лорак - выступление в казино Makao [Live] (2016) WEBRip от Лумина

3 | 0

744.58 МБ

В этой теме нет новых непрочитанных сообщений. Brit Floyd: The Pink Floyd Tribute Show - Live From Liverpool (2011) DVDRip

75 | 16

2 ГБ

В этой теме нет новых непрочитанных сообщений. DJ Roma Rich - CM Show Live 004 [SBD] (2015) MP3

62 | 4

137.58 МБ




Вы не можете начинать темы
Вы не можете отвечать на сообщения
Вы не можете редактировать свои сообщения
Вы не можете удалять свои сообщения
Вы не можете добавлять вложения

Перейти:  
Для Мосгорсуда, Роскомнадзора и рекламодателей: mosgorsud-torrent[собачка]yandex.ru
 Вход
ppkBB3cker v.2 © 2008-2014 @ PPK
[ Time : 0.034s | 20 Queries | GZIP : Off ]

cron