img image001 image001 image001 image001 image001 image001 image001 image001 image001 image001 image001 image001 image001 image001 image001 image001

Planets Sun Sun Sun
Статистика раздачи
Автор: Nickolas3434 | Размер: 252.99 МБ | Добавлен: 13 янв 2015
Раздают: 12    Качают: 2
Скачать торрент
Скачать торрент
Описание торрента

СообщениеДобавлено: 13 янв 2015 

Жанр: rock, avantgarde
Носитель: CD
Страна-производитель диска (релиза): Россия
Год издания: 2008
Издатель (лейбл): Ulitka Records
Номер по каталогу: U013
Страна исполнителя (группы): Россия
Аудиокодек: FLAC (*.flac)
Тип рипа: image+.cue
Битрейт аудио: lossless
Продолжительность: 00:41:11
Наличие сканов в содержимом раздачи: да
Треклист:
01 - Языческая песнь
02 - Португальская
03 - Давай поговорим
04 - Английская
05 - Афроамериканская
06 - Французская
07 - Галилея
08 - Русская
09 - Рай
10 - Воздушный бонус
Код:
Exact Audio Copy V0.99 prebeta 4 from 23. January 2008
Отчёт EAC об извлечении, выполненном 25. декабря 2008, 19:10
Волохонский, Хвостенко, Федоров, Волков / Сноп снов
Дисковод: ASUS    DRW-1608P2S   Adapter: 1  ID: 0
Режим чтения                 : Достоверность
Использование точного потока : Да
Отключение кэша аудио        : Да
Использование указателей C2  : Нет
Коррекция смещения при чтении                     : 48
Способность читать области Lead-in и Lead-out     : Нет
Заполнение пропущенных сэмплов тишиной            : Да
Удаление блоков с тишиной в начале и конце        : Нет
При вычислениях CRC использовались нулевые сэмплы : Да
Интерфейс                                         : Встроенный Win32-интерфейс для Win NT/2000
Выходной формат : Внутренние WAV-операции
Формат сэмплов  : 44.100 Гц; 16 бит; стерео
TOC извлечённого CD
     Трек |   Старт  | Длительность | Начальный сектор | Конечный сектор
    ---------------------------------------------------------------------
       1  |  0:00.00 |    3:16.01   |           0      |      14700
       2  |  3:16.01 |    4:46.55   |       14701      |      36205
       3  |  8:02.56 |    4:45.48   |       36206      |      57628
       4  | 12:48.29 |    4:07.19   |       57629      |      76172
       5  | 16:55.48 |    3:12.27   |       76173      |      90599
       6  | 20:08.00 |    2:21.32   |       90600      |     101206
       7  | 22:29.32 |    6:49.06   |      101207      |     131887
       8  | 29:18.38 |    5:32.37   |      131888      |     156824
       9  | 34:51.00 |    4:46.30   |      156825      |     178304
      10  | 39:37.30 |    1:34.01   |      178305      |     185355
Характеристики диапазона извлечения и сообщения об ошибках
Выбранный диапазон
     Имя файла C:Documnts and SettingsAll UsersДокументыМоя музыкаОбразцы музыкиВолохонский, Хвостенко, Федоров, Волков - Сноп снов.wav
     Пиковый уровень 100.0 %
     Качество диапазона 100.0 %
     CRC копии FCB44858
     Копирование... OK
Ошибок не произошло
Конец отчёта
 



   Похожие торренты   Торрент   Размер 
В этой теме нет новых непрочитанных сообщений. Волохонский, Хвостенко, Фёдоров, Волков - Сноп снов (2008) MP3

50 | 4

99.52 МБ

В этой теме нет новых непрочитанных сообщений. Волохонский, Фёдоров, Волков - Джойс (2004) FLAC

5 | 2

333.99 МБ

В этой теме нет новых непрочитанных сообщений. Волохонский, Фёдоров, Волков - Джойс (2004) MP3

17 | 4

142.94 МБ

В этой теме нет новых непрочитанных сообщений. Котов, Старостин, Волков, Фёдоров - Душеполезные песни на каждый день (2008) FLAC

13 | 3

325.79 МБ

В этой теме нет новых непрочитанных сообщений. Волохонский, Фёдоров, Озерский, Волошин - Горы и реки (2004) FLAC

9 | 2

222.42 МБ

В этой теме нет новых непрочитанных сообщений. Леонид Фёдоров, Владимир Волков - Таял (2005) FLAC

24 | 2

245.51 МБ

В этой теме нет новых непрочитанных сообщений. Леонид Фёдоров, Владимир Волков - Красота (2006) FLAC

19 | 2

229.89 МБ




Вы не можете начинать темы
Вы не можете отвечать на сообщения
Вы не можете редактировать свои сообщения
Вы не можете удалять свои сообщения
Вы не можете добавлять вложения

Перейти:  
 Вход
ppkBB3cker v.2 © 2008-2014 @ PPK
[ Time : 0.028s | 19 Queries | GZIP : Off ]

cron