img image001 image001 image001 image001 image001 image001 image001 image001 image001 image001 image001 image001 image001 image001 image001 image001

Planets Sun Sun Sun
Статистика раздачи
Автор: Nickolas3434 | Размер: 4.38 ГБ | Добавлен: 07 май 2016
Раздают: 34    Качают: 1
Скачать торрент
Скачать торрент
Описание торрента

СообщениеДобавлено: 07 май 2016 


Информация
Название: Новогодний концерт Венского филармонического оркестра 2002
Оригинальное название: Neujahrskonzert der Wiener Philharmoniker 2002
Год выхода: 2002
Жанр: Концерт, классическая музыка
Режиссёр: Антон Райценштайн
Исполнители: Wiener Philharmoniker, Vladimir Malakhov & Vienna Operaballett, Spanish Riding School of Vienna
Дирижёр: Сэйдзи Одзава
Описание:
Новогодний концерт в Вене (нем. Das Neujahrskonzert der Wiener Philharmoniker) — традиционный ежегодный концерт Венского филармонического оркестра 1 января в столице Австрии. Концерты, которые Венский филармонический оркестр дает ежегодно, по праву считаются одним из крупнейших мировых музыкальных событий года. К этому концерту знаменитый симфонический оркестр долго готовится: приглашает крупнейших дирижеров, подбирает репертуар, в который по традиции неизменно включаются произведения знаменитых венских композиторов из семьи Штраусов. Первый Новогодний концерт в здании Венского общества друзей музыки состоялся 31 декабря 1939 года, однако свое официальное название «Новогодний концерт» он получил лишь в 1946 году.
Выпущено: Япония, King Records Jp.
Продолжительность: 01:47:51
Перевод: Отсутствует
Файл
Контейнер: MKV
Кодек: MPEG-4 AVC
Качество: BDRip (720p) [Исходник: Blu-ray 1080i AVC DTS-HD 5.0]
Видео: MPEG-4 AVC, 1280x720 (16:9), 5170 Кбит/с, 29.970 кадр/с, 0.187 bit/pixel
Аудио: Японский, Dolby AC3, 48000 Гц, 640 Кбит/с, 5 каналов (5.0) - Оригинал
Навигация по главам: Есть (Сохранены оригинальные чаптеры, как на Blu-ray)
Часть 1:
Opening
Johann Strauss, Jr.
Zivio! Marsch, op. 456
Cаrnеvаls-Botschafter. Walzer, op. 270
Josef Strauss
Die Schwätzerin. Polka Mazur, op. 144
Johann Strauss, Jr.
Künstlerleben. Walzer, op. 316
Johann Strauss, sen.
Beliebte Annen-Polka, op. 137
Josef Strauss
Vorwärts! Schnell-Polka, op. 127
Часть 2:
Johann Strauss, Jr.
Ouvertüre zur Operette "Die Fledermaus"
Josef Strauss
Arm in Arm. Polka Mazur, op. 215
Aquarellen. Walzer, op. 258
Die Libelle. Polka mazur, op. 204
Plappermäulchen. Polka schnell,op. 245
Johann Strauss, Jr.
Perpetuum mobile. Musikalischer Scherz, op. 257
Josef Strauss
Danse diabolique
Johann Strauss, Jr.
Elisen-Polka francaise. op. 151
Wiener Blut (Viennese Blood), Waltz, op. 354
Tik-Tak. Polka schnell, op. 365
Josef Strauss
Im Fluge. Polka (schnell), op. 230
Johann Strauss, Jr.
An der schönen blauen Donau. Walzer, op. 314
Johann Strauss, sen.
Radetzkymarsch, op. 228
Credits
General
Unique ID : 212853949115892424978702288514090874361 (0xA0222DEFABBEE12C99D680076D4135F9)
Complete name : Neujahrskonzert.der.Wiener.Philarmoniker.2002.BDRip.720p.mkv
Format : Matroska
Format version : Version 4 / Version 2
File size : 4.38 GiB
Duration : 1h 47mn
Overall bit rate : 5 813 Kbps
Movie name : Новогодний концерт Венского филармонического оркестра / Neujahrskonzert der Wiener Philarmoniker (2002) BDRip (720p) от ivandubskoj
Encoded date : UTC 2016-05-07 09:21:20
Writing application : mkvmerge v7.9.0 ('Birds') 64bit
Writing library : libebml v1.3.1 + libmatroska v1.4.2
Video
ID : 1
Format : AVC
Format/Info : Advanced Video Codec
Format profile : High@L4.1
Format settings, CABAC : Yes
Format settings, ReFrames : 8 frames
Codec ID : V_MPEG4/ISO/AVC
Duration : 1h 47mn
Bit rate : 5 170 Kbps
Width : 1 280 pixels
Height : 720 pixels
Display aspect ratio : 16:9
Frame rate mode : Constant
Frame rate : 29.970 fps
Color space : YUV
Chroma subsampling : 4:2:0
Bit depth : 8 bits
Scan type : Progressive
Bits/(Pixel*Frame) : 0.187
Stream size : 3.81 GiB (87%)
Title : Neujahrskonzert der Wiener Philarmoniker (2002)
Writing library : x264 core 148 r2597 e86f3a1
Encoding settings : cabac=1 / ref=8 / deblock=1:-3:-3 / analyse=0x3:0x113 / me=umh / subme=10 / psy=1 / psy_rd=1.00:0.00 / mixed_ref=1 / me_range=32 / chroma_me=1 / trellis=2 / 8x8dct=1 / cqm=0 / deadzone=21,11 / fast_pskip=0 / chroma_qp_offset=-2 / threads=6 / lookahead_threads=1 / sliced_threads=0 / nr=0 / decimate=0 / interlaced=0 / bluray_compat=0 / constrained_intra=0 / bframes=8 / b_pyramid=2 / b_adapt=2 / b_bias=0 / direct=3 / weightb=1 / open_gop=0 / weightp=2 / keyint=300 / keyint_min=29 / scenecut=40 / intra_refresh=0 / rc_lookahead=40 / rc=2pass / mbtree=0 / bitrate=5170 / ratetol=1.0 / qcomp=0.60 / qpmin=0 / qpmax=69 / qpstep=4 / cplxblur=20.0 / qblur=0.5 / vbv_maxrate=50000 / vbv_bufsize=62500 / nal_hrd=none / filler=0 / ip_ratio=1.40 / pb_ratio=1.30 / aq=1:1.00
Default : Yes
Forced : No
Audio
ID : 2
Format : AC-3
Format/Info : Audio Coding 3
Mode extension : CM (complete main)
Format settings, Endianness : Big
Codec ID : A_AC3
Duration : 1h 47mn
Bit rate mode : Constant
Bit rate : 640 Kbps
Channel(s) : 5 channels
Channel positions : Front: L C R, Side: L R
Sampling rate : 48.0 KHz
Bit depth : 16 bits
Compression mode : Lossy
Stream size : 494 MiB (11%)
Title : Original
Language : Japanese
Default : Yes
Forced : No
Menu
00:00:00.000 : en:Chapter 1
00:01:04.564 : en:Chapter 2
00:04:26.466 : en:Chapter 3
00:12:39.024 : en:Chapter 4
00:17:26.245 : en:Chapter 5
00:26:22.647 : en:Chapter 6
00:29:20.792 : en:Chapter 7
00:32:04.155 : en:Chapter 8
00:40:44.742 : en:Chapter 9
00:45:50.314 : en:Chapter 10
00:53:55.799 : en:Chapter 11
00:58:51.261 : en:Chapter 12
01:02:30.947 : en:Chapter 13
01:05:40.336 : en:Chapter 14
01:11:28.484 : en:Chapter 15
01:15:39.234 : en:Chapter 16
01:24:31.232 : en:Chapter 17
01:27:37.752 : en:Chapter 18
01:29:41.476 : en:Chapter 19
01:32:13.027 : en:Chapter 20
01:42:26.607 : en:Chapter 21
01:46:25.512 : en:Chapter 22



Автор рипа - ivandubskoj



   Похожие торренты   Торрент   Размер 
В этой теме нет новых непрочитанных сообщений. Новогодний концерт Венского филармонического оркестра / Neujahrskonzert der Wiener Philharmoniker (2018) HDTVRip от ivandubskoj | P1

5 | 0

2.73 ГБ

В этой теме нет новых непрочитанных сообщений. Новогодний концерт Венского филармонического оркестра 2016 / Neujahrskonzert der Wiener Philharmoniker 2016 (2016) HDTVRip 720p от ivandubskoj

203 | 21

4.81 ГБ

В этой теме нет новых непрочитанных сообщений. Новогодний концерт Венского филармонического оркестра 2015 / Neujahrskonzert der Wiener Philharmoniker 2015 (2015) BDRip от ivandubskoj

75 | 11

2.05 ГБ

В этой теме нет новых непрочитанных сообщений. Новогодний концерт Венского филармонического оркестра 2013 / Neujahrskonzert der Wiener Philharmoniker 2013 (2013) BDRip от ivandubskoj

132 | 5

2.05 ГБ

В этой теме нет новых непрочитанных сообщений. Новогодний концерт Венского филармонического оркестра 2014 / Neujahrskonzert der Wiener Philharmoniker 2014 (2014) BDRip от ivandubskoj

56 | 7

2.12 ГБ

В этой теме нет новых непрочитанных сообщений. Новогодний концерт Венского филармонического оркестра 2016 / Neujahrskonzert der Wiener Philharmoniker 2016 (2016) IPTVRip от ivandubskoj

317 | 13

2.18 ГБ

В этой теме нет новых непрочитанных сообщений. Новогодний концерт Венского филармонического оркестра 2016 / Neujahrskonzert der Wiener Philharmoniker 2016 (2016) HDTVRip от ivandubskoj

163 | 18

2.51 ГБ




Вы не можете начинать темы
Вы не можете отвечать на сообщения
Вы не можете редактировать свои сообщения
Вы не можете удалять свои сообщения
Вы не можете добавлять вложения

Перейти:  
 Вход
ppkBB3cker v.2 © 2008-2014 @ PPK
[ Time : 0.041s | 18 Queries | GZIP : Off ]

cron