img image001 image001 image001 image001 image001 image001 image001 image001 image001 image001 image001 image001 image001 image001 image001 image001

Planets Sun Sun Sun
Статистика раздачи
Автор: Nickolas3434 | Размер: 464.36 МБ | Добавлен: 23 апр 2017
Раздают: 0    Качают: 0
Скачать торрент
Скачать торрент
Описание торрента

СообщениеДобавлено: 23 апр 2017 

Название: Who's afraid of the Art of Noise? - 1984
Исполнитель: The Art of Noise
Год: 2011
Жанр: Electronic, Synth-pop, Experimental
Страна: UK
Продолжительность: 01:16:52
Формат/Кодек: FLAC
Битрейт аудио: Lossless
Who's Afraid of the Art of Noise?
1. A Time for Fear (Who's Afraid)
2. Beat Box (Diversion One)
3. Snapshot
4. Close (to the Edit)
5. Who's Afraid (of the Art of Noise)
6. Moments in Love
7. Memento
8. How to Kill
9. Realisation
Radio 1, November 1984 BBC live session
10. 'too busy talking'
11. Close (to the Edit)
12. 'exploring the jungle'
13. Moments in Love
14. 'arranged in a circle'
15. Beat Box (diverted via Video Killed the Radio Star)
Radio 1, March 1985 BBC live session
16. From Science to Silence
17. Beat Box
18. Moments in Love

Дополнительная информация: Переиздание классического альбома the Art of Noise, в качестве бонусов - самое первое и самое второе выступления группы на радио (очень хорошие).
Exact Audio Copy V1.0 beta 3 from 29. August 2011
Отчёт EAC об извлечении, выполненном 18. июня 2015, 12:25
The Art of Noise / Who's Afraid of the Art of Noise
Дисковод: Optiarc DVD RW AD-7261S Adapter: 0 ID: 3
Режим чтения : Достоверность
Использование точного потока : Да
Отключение кэша аудио : Да
Использование указателей C2 : Нет
Коррекция смещения при чтении : 48
Способность читать области Lead-in и Lead-out : Нет
Заполнение пропущенных сэмплов тишиной : Да
Удаление блоков с тишиной в начале и конце : Нет
При вычислениях CRC использовались нулевые сэмплы : Да
Интерфейс : Встроенный Win32-интерфейс для Win NT/2000
Выходной формат : Пользовательский кодировщик
Выбранный битрейт : 768 kBit/s
Качество : Высокий
Добавление ID3-тега : Нет
Утилита сжатия : C:Program FilesExact Audio CopyFLACFLAC.EXE
Дополнительные параметры : -V -8 -T "Date=%year%" -T "Genre=%genre%" %source%
TOC извлечённого CD
Трек | Старт | Длительность | Начальный сектор | Конечный сектор
---------------------------------------------------------------------
1 | 0:00.00 | 4:46.16 | 0 | 21465
2 | 4:46.16 | 8:32.54 | 21466 | 59919
3 | 13:18.70 | 1:03.34 | 59920 | 64678
4 | 14:22.29 | 5:37.56 | 64679 | 90009
5 | 20:00.10 | 4:22.38 | 90010 | 109697
6 | 24:22.48 | 10:17.27 | 109698 | 155999
7 | 34:40.00 | 2:14.20 | 156000 | 166069
8 | 36:54.20 | 2:42.40 | 166070 | 178259
9 | 39:36.60 | 1:44.36 | 178260 | 186095
10 | 41:21.21 | 0:27.59 | 186096 | 188179
11 | 41:49.05 | 4:25.07 | 188180 | 208061
12 | 46:14.12 | 0:33.21 | 208062 | 210557
13 | 46:47.33 | 4:28.63 | 210558 | 230720
14 | 51:16.21 | 4:01.56 | 230721 | 248851
15 | 55:18.02 | 6:02.31 | 248852 | 276032
16 | 61:20.33 | 3:19.49 | 276033 | 291006
17 | 64:40.07 | 6:41.38 | 291007 | 321119
18 | 71:21.45 | 5:30.68 | 321120 | 345937
Характеристики диапазона извлечения и сообщения об ошибках
Выбранный диапазон
Имя файла F:My musicaArt of Noise - Who's Afraid of theThe Art of Noise - Who's Afraid of the Art of Noise.wav
Пиковый уровень 99.4 %
Скорость извлечения 4.5 X
Качество диапазона 99.9 %
CRC теста D8B072C2
CRC копии D8B072C2
Копирование... OK
Ошибок не произошло
AccurateRip: сводка
Трек 1 : извлечено точно (доверие 45) [CF0057E7] (AR v2)
Трек 2 : извлечено точно (доверие 45) [E6B3A16D] (AR v2)
Трек 3 : извлечено точно (доверие 45) [344F0925] (AR v2)
Трек 4 : извлечено точно (доверие 45) [282D1CB7] (AR v2)
Трек 5 : извлечено точно (доверие 45) [9F02D553] (AR v2)
Трек 6 : извлечено точно (доверие 45) [1A2E9376] (AR v2)
Трек 7 : извлечено точно (доверие 44) [5AE3F1E2] (AR v2)
Трек 8 : извлечено точно (доверие 43) [9C7A7DCD] (AR v2)
Трек 9 : извлечено точно (доверие 45) [974F5842] (AR v2)
Трек 10 : извлечено точно (доверие 45) [A81B98A9] (AR v2)
Трек 11 : извлечено точно (доверие 44) [F50C61FF] (AR v2)
Трек 12 : извлечено точно (доверие 45) [4F3C5572] (AR v2)
Трек 13 : извлечено точно (доверие 46) [A37665FA] (AR v2)
Трек 14 : извлечено точно (доверие 45) [59A2B285] (AR v2)
Трек 15 : извлечено точно (доверие 45) [0C49CB8A] (AR v2)
Трек 16 : извлечено точно (доверие 45) [CD39DBD0] (AR v2)
Трек 17 : извлечено точно (доверие 44) [44AE2C56] (AR v2)
Трек 18 : извлечено точно (доверие 43) [4AE09841] (AR v2)
Все треки извлечены точно
Конец отчёта
---- CUETools DB Plugin V2.1.3
[CTDB TOCID: pD3E0E8CUdH72n5aqjp41iyOEvo-] found, Submit result: pD3E0E8CUdH72n5aqjp41iyOEvo- has been confirmed
[c7d34eda] (24/27) Accurately ripped
[574dbe09] (01/27) No match
[7b8d1ab8] (01/27) No match
[72bd582e] (01/27) No match
==== Контрольная сумма отчёта 61CFA941FAABA05D9FAC45095722C1851956E37C35262E5BE4B5B0645771BA61 ====

REM GENRE Electronic
REM DATE 2011
REM DISCID 04120412
REM COMMENT "ExactAudioCopy v1.0b3"
PERFORMER "The Art of Noise"
TITLE "Who's Afraid of the Art of Noise"
FILE "The Art of Noise - Who's Afraid of the Art of Noise.flac" WAVE
TRACK 01 AUDIO
TITLE "A Time For Fear (Who's Afraid)"
PERFORMER "The Art of Noise"
ISRC GBAHW0000213
INDEX 01 00:00:00
TRACK 02 AUDIO
TITLE "Beat Box (Diversion One)"
PERFORMER "The Art of Noise"
ISRC GBAHW0000214
INDEX 00 04:45:27
INDEX 01 04:46:16
TRACK 03 AUDIO
TITLE "Snapshot"
PERFORMER "The Art of Noise"
ISRC GBAHW0000225
INDEX 00 13:17:32
INDEX 01 13:18:70
TRACK 04 AUDIO
TITLE "Close (to the Edit)"
PERFORMER "The Art of Noise"
ISRC GBAHW0000226
INDEX 00 14:20:39
INDEX 01 14:22:29
TRACK 05 AUDIO
TITLE "Who's Afraid (of the Art of Noise)"
PERFORMER "The Art of Noise"
ISRC GBAHW0500060
INDEX 00 19:57:56
INDEX 01 20:00:10
TRACK 06 AUDIO
TITLE "Moments In Love"
PERFORMER "The Art of Noise"
ISRC GBAHW0000221
INDEX 00 24:21:49
INDEX 01 24:22:48
TRACK 07 AUDIO
TITLE "Memento"
PERFORMER "The Art of Noise"
ISRC GBAHW0000217
INDEX 00 34:38:34
INDEX 01 34:40:00
TRACK 08 AUDIO
TITLE "How To Kill"
PERFORMER "The Art of Noise"
ISRC GBAHW0000218
INDEX 00 36:52:56
INDEX 01 36:54:20
TRACK 09 AUDIO
TITLE "Realisation"
PERFORMER "The Art of Noise"
ISRC GBAHW0000219
INDEX 01 39:36:60
TRACK 10 AUDIO
TITLE "'too busy talking'"
PERFORMER "The Art of Noise"
INDEX 00 41:20:14
INDEX 01 41:21:21
TRACK 11 AUDIO
TITLE "Close (to the Edit)"
PERFORMER "The Art of Noise"
ISRC GBCAD1100278
INDEX 01 41:49:05
TRACK 12 AUDIO
TITLE "'exploring the jungle'"
PERFORMER "The Art of Noise"
INDEX 00 46:13:37
INDEX 01 46:14:12
TRACK 13 AUDIO
TITLE "Moments in Love"
PERFORMER "The Art of Noise"
ISRC GBCAD1100279
INDEX 01 46:47:33
TRACK 14 AUDIO
TITLE "'arranged in a circle'"
PERFORMER "The Art of Noise"
INDEX 00 51:14:00
INDEX 01 51:16:21
TRACK 15 AUDIO
TITLE "Beat Box (diverted via Video Killed The Radio Star)"
PERFORMER "The Art of Noise"
ISRC GBCAD1100280
INDEX 01 55:18:02
TRACK 16 AUDIO
TITLE "From Science to Silence"
PERFORMER "The Art of Noise"
ISRC GBCAD1100281
INDEX 00 61:19:23
INDEX 01 61:20:33
TRACK 17 AUDIO
TITLE "Beat Box"
PERFORMER "The Art of Noise"
ISRC GBCAD1100282
INDEX 00 64:38:42
INDEX 01 64:40:07
TRACK 18 AUDIO
TITLE "Moments in Love"
PERFORMER "The Art of Noise"
ISRC GBCAD1100283
INDEX 00 71:20:31
INDEX 01 71:21:45

Издатель (лейбл): ZTT/Salvo
Номер по каталогу: SALVOMDCD22
Источник (релизер): 1000oceans



   Похожие торренты   Торрент   Размер 
В этой теме нет новых непрочитанных сообщений. The Art of Noise - Who's afraid of the Art of Noise? - 1984 (2011) MP3

1 | 0

176.09 МБ

В этой теме нет новых непрочитанных сообщений. Lydia Lunch's Big Sexy Noise - Big Sexy Noise (2009) FLAC

5 | 1

296.58 МБ

В этой теме нет новых непрочитанных сообщений. Wynonna & The Big Noise - Wynonna & The Big Noise (2016) FLAC

1 | 0

325.63 МБ

В этой теме нет новых непрочитанных сообщений. Bassnectar - Noise vs Beauty (2014) FLAC

44 | 5

440.35 МБ

В этой теме нет новых непрочитанных сообщений. Gossip - A Joyful Noise (2012) FLAC

27 | 14

304.88 МБ

В этой теме нет новых непрочитанных сообщений. Hobo Noise - Barbare (2015) FLAC

26 | 8

410.51 МБ

В этой теме нет новых непрочитанных сообщений. Art of Noise - The Seduction Of Claude Debussy (1999) FLAC

90 | 15

417.07 МБ




Вы не можете начинать темы
Вы не можете отвечать на сообщения
Вы не можете редактировать свои сообщения
Вы не можете удалять свои сообщения
Вы не можете добавлять вложения

Перейти:  
 Вход
ppkBB3cker v.2 © 2008-2014 @ PPK
[ Time : 0.033s | 18 Queries | GZIP : Off ]

cron