img image001 image001 image001 image001 image001 image001 image001 image001 image001 image001 image001 image001 image001 image001 image001 image001

Planets Sun Sun Sun
Статистика раздачи
Автор: Nickolas3434 | Размер: 1.29 ГБ | Добавлен: 28 май 2017
Раздают: 13    Качают: 2
Скачать торрент
Скачать торрент
Описание торрента

СообщениеДобавлено: 28 май 2017 

Исполнитель: Группа Мегаполис
Жанр: Rock
Год выпуска: 2017
Продолжительность: 00:53:35
Описание: «Мегаполис» — советская и российская рок-группа, основанная в Москве в 1987 году. День рождения группы – по-видимому, 27 мая(сегодня им 30 лет), именно тогда был издан дебютный альбом «Утро». Первое выступление «Мегаполиса» состоялось в июне 1987 года на фестивале Московской рок-лаборатории в ДК Горбунова.Многие песни группы написаны на стихи известных поэтов: Иосифа Бродского («Там», «Рождественский романс», «Дебют»), Александра Бараша («Одиночка», «Мария Египетская», «Посвящение Деннису Силку», «Гроза в деревне», «Баллада о воске и меде», «Влажная ложь», «Через полвека»), Васко Попы («Семена», «Гвозди»), Андрея Вознесенского («Новое московское сиртаки»).В середине 90-х Олег Нестеров занялся продюсерской деятельностью (звукозаписывающие студии «Лёгкие», «Снегири»). В 1996 году был выпущен альбом «Гроза в деревне», после чего группа ушла в продолжительный отдых, выпуская отдельные песни. Ушла, чтобы вернуться в мае 2010 года с новым альбомом «Супертанго», который был признан самым успешным.
Формат: MKV
Качество: HDTVRip 720p
Видео кодек: H.264
Аудио кодек: AAC
Видео: H.264, 1280x720, ~3 470 Kbps, 25fps
Аудио: AAC, 2 ch, 192 Kbps, 48000Hz
1.Там
2.Я весна
3.Семь пар нечистых
4.Супертанго
5.Ангел
6.Раны на стекле
7.Эхо
Complete name : G:Megapolis.mkv
Format : Matroska
Format version : Version 4 / Version 2
File size : 1.29 GiB
Duration : 53 min 35 s
Overall bit rate : 3 459 kb/s
Encoded date : UTC 2017-05-26 21:39:14
Writing application : mkvmerge v8.3.0 ('Over the Horizon') 64bit
Writing library : libebml v1.3.1 + libmatroska v1.4.2
Video
ID : 1
Format : AVC
Format/Info : Advanced Video Codec
Format profile : Main@L4.1
Format settings, CABAC : Yes
Format settings, ReFrames : 4 frames
Codec ID : V_MPEG4/ISO/AVC
Duration : 53 min 35 s
Bit rate : 3 267 kb/s
Width : 1 280 pixels
Height : 720 pixels
Display aspect ratio : 16:9
Frame rate mode : Constant
Frame rate : 25.000 FPS
Standard : PAL
Color space : YUV
Chroma subsampling : 4:2:0
Bit depth : 8 bits
Scan type : Progressive
Bits/(Pixel*Frame) : 0.142
Stream size : 1.22 GiB (94%)
Language : English
Default : Yes
Forced : No
Color range : Limited
Color primaries : BT.709
Transfer characteristics : BT.709
Matrix coefficients : BT.709
Audio
ID : 2
Format : AAC
Format/Info : Advanced Audio Codec
Format profile : LC
Codec ID : A_AAC
Duration : 53 min 35 s
Bit rate : 192 kb/s
Channel(s) : 2 channels
Channel positions : Front: L R
Sampling rate : 48.0 kHz
Frame rate : 46.875 FPS (1024 spf)
Compression mode : Lossy
Stream size : 72.6 MiB (5%)
Language : English
Default : Yes
Forced : No



   Похожие торренты   Торрент   Размер 
В этой теме нет новых непрочитанных сообщений. Группа «Машина времени». Концерт в Москве (26.04) (2017) HDTVRip 1080p

181 | 12

2.41 ГБ

В этой теме нет новых непрочитанных сообщений. Наташа Ранголи и группа Леди - Новогодний концерт в Москве (2017) CAMRip-AVC

0 | 0

225.53 МБ

В этой теме нет новых непрочитанных сообщений. Нейромонах Феофан - Концерт в Москве (2017) HDTVRip 720p

14 | 0

320.61 МБ

В этой теме нет новых непрочитанных сообщений. Алина Орлова - Концерт в Москве (2017) HDTVRip 1080p

9 | 2

573.89 МБ

В этой теме нет новых непрочитанных сообщений. МакSим - Сольный концерт в Москве "Это же я" (2017) WEB-DLRip 720p

80 | 6

1.54 ГБ

В этой теме нет новых непрочитанных сообщений. Мираж - Новогодний концерт в Москве (2017) CAMRip-AVC

12 | 1

1004.59 МБ

В этой теме нет новых непрочитанных сообщений. Игорь Кезля - Концерт в Москве (2013) WEBRip 720p

0 | 0

652 МБ




Вы не можете начинать темы
Вы не можете отвечать на сообщения
Вы не можете редактировать свои сообщения
Вы не можете удалять свои сообщения
Вы не можете добавлять вложения

Перейти:  
 Вход
ppkBB3cker v.2 © 2008-2014 @ PPK
[ Time : 0.017s | 15 Queries | GZIP : Off ]

cron