img image001 image001 image001 image001 image001 image001 image001 image001 image001 image001 image001 image001 image001 image001 image001

Planets Sun Sun Sun
Статистика раздачи
Автор: Nickolas3434 | Размер: 963.36 МБ | Добавлен: 18 июн 2017
Раздают: 8    Качают: 1
Скачать торрент
Скачать торрент
Описание торрента

СообщениеДобавлено: 18 июн 2017 

Исполнитель/Группа: Алена Апина
Жанр: POP
Год выпуска: 2016
Продолжительность: 00:55:01
Описание: Живой концерт заслуженной артистки Российской Федерации Алены Апиной в 2016г.
Формат: MKV
Качество: CAMRip
Видео кодек: H.264
Аудио кодек: AAC
Видео: H.264, ~2 200 Kbps, 1024 x 576 (16:9), 25fps
Аудио: AAC, 48000Hz, 2ch, 192 kbps
1.Пойдем со мной
2.Тук,тук
3.Лунные ночи
4.Узелки
5.Семечек стакан
6.Не держи меня,мама
7.Белые ночи
8.Белые медведи
9.American boy
10.Бухгалтер
11.Между двух берегов
12.Электричка
13.Ты мне не снишься
14.Ксюша
Complete name : G:Apina_2016.mkv
Format : Matroska
Format version : Version 4 / Version 2
File size : 963 MiB
Duration : 55 min 1 s
Overall bit rate : 2 448 kb/s
Encoded date : UTC 2017-06-17 22:18:28
Writing application : mkvmerge v8.3.0 ('Over the Horizon') 64bit
Writing library : libebml v1.3.1 + libmatroska v1.4.2
Video
ID : 1
Format : AVC
Format/Info : Advanced Video Codec
Format profile : Main@L3.1
Format settings, CABAC : Yes
Format settings, ReFrames : 4 frames
Codec ID : V_MPEG4/ISO/AVC
Duration : 55 min 1 s
Bit rate : 2 256 kb/s
Width : 1 024 pixels
Height : 576 pixels
Display aspect ratio : 16:9
Frame rate mode : Constant
Frame rate : 25.000 FPS
Standard : PAL
Color space : YUV
Chroma subsampling : 4:2:0
Bit depth : 8 bits
Scan type : Progressive
Bits/(Pixel*Frame) : 0.153
Stream size : 888 MiB (92%)
Language : English
Default : Yes
Forced : No
Color range : Limited
Color primaries : BT.601 PAL
Transfer characteristics : BT.470 System B, BT.470 System G
Matrix coefficients : BT.601
Audio
ID : 2
Format : AAC
Format/Info : Advanced Audio Codec
Format profile : LC
Codec ID : A_AAC
Duration : 55 min 1 s
Bit rate : 192 kb/s
Channel(s) : 2 channels
Channel positions : Front: L R
Sampling rate : 48.0 kHz
Frame rate : 46.875 FPS (1024 spf)
Compression mode : Lossy
Stream size : 74.5 MiB (8%)
Language : English
Default : Yes
Forced : No



   Похожие торренты   Торрент   Размер 
В этой теме нет новых непрочитанных сообщений. Алена Апина - Концерт. А у меня сегодня День Рождения (2014) WEBRip-AVC

8 | 0

1.94 ГБ

В этой теме нет новых непрочитанных сообщений. Татьяна Овсиенко - Концерт в Москве (2016) CAMRip-AVC

21 | 0

1.06 ГБ

В этой теме нет новых непрочитанных сообщений. Алёна Апина - Коллекция (2016-2017) MP3

14 | 3

104.26 МБ

В этой теме нет новых непрочитанных сообщений. Аня Воробей и Владимир Захаров (Рок-Острова) - Концерт в Москве (2016) CAMRip-AVC

74 | 13

1.38 ГБ

В этой теме нет новых непрочитанных сообщений. Алена Апина. А любовь она и есть (2015) SATRip

36 | 3

715.96 МБ

В этой теме нет новых непрочитанных сообщений. Алена Апина - Хорошие песни (2007-2011) МР3

5 | 6

83.63 МБ

В этой теме нет новых непрочитанных сообщений. Алёна Апина - Большая коллекция [2 части] (2014) MP3

35 | 9

859.35 МБ




Вы не можете начинать темы
Вы не можете отвечать на сообщения
Вы не можете редактировать свои сообщения
Вы не можете удалять свои сообщения
Вы не можете добавлять вложения

Перейти:  
Для Мосгорсуда, Роскомнадзора и рекламодателей: mosgorsud-torrent[собачка]yandex.ru
 Вход
ppkBB3cker v.2 © 2008-2014 @ PPK
[ Time : 0.026s | 15 Queries | GZIP : Off ]

cron