img image001 image001 image001 image001 image001 image001 image001 image001 image001 image001 image001 image001 image001 image001 image001 image001

Planets Sun Sun Sun
Статистика раздачи
Автор: Nickolas3434 | Размер: 1.06 ГБ | Добавлен: 06 июл 2017
Раздают: 17    Качают: 0
Скачать торрент
Скачать торрент
Описание торрента

СообщениеДобавлено: 06 июл 2017 

Исполнитель/Группа: Татьяна Овсиенко
Жанр: POP
Год выпуска: 2016
Продолжительность: 01:01:48
Описание: Живой концерт заслуженной артистки Российской Федерации Татьяны Овсиенко в 2016г.
Формат: MKV
Качество: CAMRip
Видео кодек: H.264
Аудио кодек: AAC
Видео: H.264, ~2 250 Kbps, 1024 x 576 (16:9), 30 fps
Аудио: AAC, 48000Hz, 2ch, 192 kbps
1.«Ты да Я» муз. С. Леонтьев / сл. А. Толстов
2.«Наш двор» муз. И. Зубков / сл. К. Арсенев
3.«Звёздное лето» муз. А. Пугачева / сл. И. Резник
4.«Колечко» муз. И. Зубков / сл. К. Арсенев
5.«Женское счастье» муз. И. Зубков / сл. К. Арсенев
6.«Дальнобойщик» муз. И. Зубков / сл. К. Арсенев
7.«Школьная пора» муз. И. Зубков / сл. К. Арсенев
8.«Река любви» О. Молчанов / сл. К. Крастошевский
9.«Свет» муз. С. Леонтьев / сл. А. Толстов
10.«Тому кого люблю» муз. В. Бодолика / сл. К. Губин
11.«Моряк» муз. О. Газманов / сл. О. Газманов
12.«За розовым морем» муз. И. Зубков / сл. К. Арсенев
13.«Берега любви» муз. В. Дробыш / сл. Л. Стюф
14.«Попурри»:
«Красивая девчонка» муз. В. Чайка / сл. Л. Рубальская
«Морозов» муз. А. Укупник / сл. Л. Рубальская
«Капитан» муз. В. Чайка / сл. В. Чайка
«Карты-картишки» муз. В. Чайка / сл. Л. Рубальская
«Запомни меня молодой и красивой» муз. В. Чайка / сл. С.Осиашвили
Complete name : D:Ovsienko_2016.mkv
Format : Matroska
Format version : Version 4 / Version 2
File size : 1.06 GiB
Duration : 1 h 1 min
Overall bit rate : 2 450 kb/s
Encoded date : UTC 2017-07-06 14:36:28
Writing application : mkvmerge v8.3.0 ('Over the Horizon') 64bit
Writing library : libebml v1.3.1 + libmatroska v1.4.2
Video
ID : 1
Format : AVC
Format/Info : Advanced Video Codec
Format profile : Main@L3.1
Format settings, CABAC : Yes
Format settings, ReFrames : 4 frames
Codec ID : V_MPEG4/ISO/AVC
Duration : 1 h 1 min
Bit rate : 2 258 kb/s
Width : 1 024 pixels
Height : 576 pixels
Display aspect ratio : 16:9
Frame rate mode : Constant
Frame rate : 30.000 FPS
Standard : NTSC
Color space : YUV
Chroma subsampling : 4:2:0
Bit depth : 8 bits
Scan type : Progressive
Bits/(Pixel*Frame) : 0.128
Stream size : 998 MiB (92%)
Language : English
Default : Yes
Forced : No
Color range : Limited
Color primaries : BT.601 PAL
Transfer characteristics : BT.470 System B, BT.470 System G
Matrix coefficients : BT.601
Audio
ID : 2
Format : AAC
Format/Info : Advanced Audio Codec
Format profile : LC
Codec ID : A_AAC
Duration : 1 h 1 min
Bit rate : 192 kb/s
Channel(s) : 2 channels
Channel positions : Front: L R
Sampling rate : 48.0 kHz
Frame rate : 46.875 FPS (1024 spf)
Compression mode : Lossy
Stream size : 83.7 MiB (8%)
Language : English
Default : Yes
Forced : No



   Похожие торренты   Торрент   Размер 
В этой теме нет новых непрочитанных сообщений. Алена Апина - Концерт в Москве (2016) CAMRip-AVC

9 | 1

963.36 МБ

В этой теме нет новых непрочитанных сообщений. Аня Воробей и Владимир Захаров (Рок-Острова) - Концерт в Москве (2016) CAMRip-AVC

79 | 12

1.38 ГБ

В этой теме нет новых непрочитанных сообщений. Мираж - Новогодний концерт в Москве (2017) CAMRip-AVC

12 | 1

1004.59 МБ

В этой теме нет новых непрочитанных сообщений. Татьяна Буланова - Концерт в Сосенском (2017) CAMRip

6 | 0

1.22 ГБ

В этой теме нет новых непрочитанных сообщений. Наташа Ранголи и группа Леди - Новогодний концерт в Москве (2017) CAMRip-AVC

0 | 0

225.53 МБ

В этой теме нет новых непрочитанных сообщений. Татьяна Буланова - Концерт в Ельце (2017) CAMRip 720p

4 | 1

748.99 МБ

В этой теме нет новых непрочитанных сообщений. Татьяна Овсиенко - Grand Collection (2004) MP3

0 | 0

175.7 МБ




Вы не можете начинать темы
Вы не можете отвечать на сообщения
Вы не можете редактировать свои сообщения
Вы не можете удалять свои сообщения
Вы не можете добавлять вложения

Перейти:  
 Вход
ppkBB3cker v.2 © 2008-2014 @ PPK
[ Time : 0.021s | 15 Queries | GZIP : Off ]

cron