img image001 image001 image001 image001 image001 image001 image001 image001 image001 image001 image001 image001 image001 image001 image001 image001

Planets Sun Sun Sun
Статистика раздачи
Автор: Nickolas3434 | Размер: 1.38 ГБ | Добавлен: 18 июл 2017
Раздают: 79    Качают: 12
Скачать торрент
Скачать торрент
Описание торрента

СообщениеДобавлено: 18 июл 2017 

Исполнитель/Группа: Владимир Захаров и Аня Воробей
Жанр: Pop, Шансон, Rock
Год выпуска: 2016
Продолжительность: 01:44:50
Описание: Живой концерт Ани Воробей и Владимира Захарова в Москве.
Формат: MKV
Качество: CAMRip
Видео кодек: H.264
Аудио кодек: AAC
Видео: H.264, ~1 700 Kbps, 1024 x 576 (16:9), 30 fps
Аудио: AAC, 48000Hz, 2ch, 192 kbps
1.Ворона
2.Без тебя
3.Прощай Владимирский централ
4.Годы те 60-е
5.Белая роза
6.У Москвы-реки в тенёчке
7.Я хочу тебя видеть
8.Котуйская история
9.Что было то было
10.Любовь хулигана
11.Нашу любовь не вернуть никогда
12.Комедианты
13.Когда ты рядом
14.Маленькая колдуья
15.Я ваша тайна
16.Ночь
17.Остаться с тобой
18.Пойдем со мной
19.Мечта
20.День и ночь
21.Я не пойму
22.Но тебя не любить не возможно
23.Костры
24.Снег
25.Ничего не говори
Complete name : D:Rock_Ostrova_2016.mkv
Format : Matroska
Format version : Version 4 / Version 2
File size : 1.38 GiB
Duration : 1 h 44 min
Overall bit rate : 1 889 kb/s
Encoded date : UTC 2017-07-18 02:27:59
Writing application : mkvmerge v8.3.0 ('Over the Horizon') 64bit
Writing library : libebml v1.3.1 + libmatroska v1.4.2
Video
ID : 1
Format : AVC
Format/Info : Advanced Video Codec
Format profile : Main@L3.1
Format settings, CABAC : Yes
Format settings, ReFrames : 4 frames
Format settings, GOP : M=4, N=30
Codec ID : V_MPEG4/ISO/AVC
Duration : 1 h 44 min
Bit rate : 1 697 kb/s
Width : 1 024 pixels
Height : 576 pixels
Display aspect ratio : 16:9
Frame rate mode : Constant
Frame rate : 30.000 FPS
Standard : NTSC
Color space : YUV
Chroma subsampling : 4:2:0
Bit depth : 8 bits
Scan type : Progressive
Bits/(Pixel*Frame) : 0.096
Stream size : 1.24 GiB (90%)
Language : English
Default : Yes
Forced : No
Color range : Limited
Color primaries : BT.601 PAL
Transfer characteristics : BT.470 System B, BT.470 System G
Matrix coefficients : BT.601
Audio
ID : 2
Format : AAC
Format/Info : Advanced Audio Codec
Format profile : LC
Codec ID : A_AAC
Duration : 1 h 44 min
Bit rate : 192 kb/s
Channel(s) : 2 channels
Channel positions : Front: L R
Sampling rate : 48.0 kHz
Frame rate : 46.875 FPS (1024 spf)
Compression mode : Lossy
Stream size : 142 MiB (10%)
Language : English
Default : Yes
Forced : No



   Похожие торренты   Торрент   Размер 
В этой теме нет новых непрочитанных сообщений. Владимир Захаров и Аня Воробей - Коллекция (2001-2011) MP3

280 | 24

690.84 МБ

В этой теме нет новых непрочитанных сообщений. Владимир Захаров и группа Рок-Острова - Твоя игра. Время (2016) MP3

104 | 10

247.53 МБ

В этой теме нет новых непрочитанных сообщений. Владимир Захаров и группа Рок-Острова - Я вернусь (2015) MP3

255 | 19

94.82 МБ

В этой теме нет новых непрочитанных сообщений. Владимир Захаров (Рок-Острова) - Коллекция (14 альбомов) (1997-2015) MP3

187 | 33

2.11 ГБ

В этой теме нет новых непрочитанных сообщений. Владимир Захаров и группа Рок-Острова - Коллекция (1994-2013) MP3 от IMA-Sound

95 | 21

6.4 ГБ

В этой теме нет новых непрочитанных сообщений. Татьяна Овсиенко - Концерт в Москве (2016) CAMRip-AVC

17 | 0

1.06 ГБ

В этой теме нет новых непрочитанных сообщений. Алена Апина - Концерт в Москве (2016) CAMRip-AVC

9 | 1

963.36 МБ




Вы не можете начинать темы
Вы не можете отвечать на сообщения
Вы не можете редактировать свои сообщения
Вы не можете удалять свои сообщения
Вы не можете добавлять вложения

Перейти:  
 Вход
ppkBB3cker v.2 © 2008-2014 @ PPK
[ Time : 1.025s | 15 Queries | GZIP : Off ]

cron