img image001 image001 image001 image001 image001 image001 image001 image001 image001 image001 image001 image001 image001 image001 image001 image001

Planets Sun Sun Sun
Статистика раздачи
Автор: Nickolas3434 | Размер: 398.86 МБ | Добавлен: 29 окт 2017
Раздают: 1    Качают: 0
Скачать торрент
Скачать торрент
Описание торрента

СообщениеДобавлено: 29 окт 2017 

Название: Достоевский
Исполнитель: Происшествие
Год: 2015
Жанр: Джаз, блюз, рок, панк, фолк-рок
Страна: Россия
Продолжительность: 00:57:10
Формат/Кодек: FLAC
Битрейт аудио: lossless
Официальный сайт
01. Книжная лавка на старом проспекте
02. Доктор Антонов
03. Госпитальный вал
04. Уходи от меня
05. Мой внутренний Чехов
06. Афродизиак
07. Удовольствие от жизни
08. Все женщины
09. Музыка закончилась
10. Дина на льдине
11. У генерала Эйзенхауэра...
12. Англичанин в Улан-Удэ
13. Каберне
14. Чёрный фельдшер
15. Достоевский
16. Аркадий Иванович едет в Америку
17. Как холодно, мой ангел…

Exact Audio Copy V1.1 from 23. June 2015
Отчёт EAC об извлечении, выполненном 6. ноября 2015, 18:05
Происшествие / Достоевский
Дисковод: TEAC DV-W524GSB Adapter: 1 ID: 0
Режим чтения : Достоверность
Использование точного потока : Да
Отключение кэша аудио : Да
Использование указателей C2 : Нет
Коррекция смещения при чтении : 6
Способность читать области Lead-in и Lead-out : Нет
Заполнение пропущенных сэмплов тишиной : Да
Удаление блоков с тишиной в начале и конце : Нет
При вычислениях CRC использовались нулевые сэмплы : Да
Интерфейс : Встроенный Win32-интерфейс для Win NT/2000
Выходной формат : Пользовательский кодировщик
Выбранный битрейт : 128 kBit/s
Качество : Высокий
Добавление ID3-тега : Нет
Утилита сжатия : C:Program Files (x86)FLACflac.exe
Дополнительные параметры : -V -8 -T "Date=%year%" -T "Genre=%genre%" %source%
TOC извлечённого CD
Трек | Старт | Длительность | Начальный сектор | Конечный сектор
---------------------------------------------------------------------
1 | 0:00.00 | 5:26.69 | 0 | 24518
2 | 5:26.69 | 4:38.63 | 24519 | 45431
3 | 10:05.57 | 3:31.62 | 45432 | 61318
4 | 13:37.44 | 3:17.00 | 61319 | 76093
5 | 16:54.44 | 3:11.11 | 76094 | 90429
6 | 20:05.55 | 2:50.19 | 90430 | 103198
7 | 22:55.74 | 3:22.05 | 103199 | 118353
8 | 26:18.04 | 2:54.33 | 118354 | 131436
9 | 29:12.37 | 4:20.43 | 131437 | 150979
10 | 33:33.05 | 1:57.21 | 150980 | 159775
11 | 35:30.26 | 2:36.23 | 159776 | 171498
12 | 38:06.49 | 2:49.00 | 171499 | 184173
13 | 40:55.49 | 2:33.42 | 184174 | 195690
14 | 43:29.16 | 2:33.32 | 195691 | 207197
15 | 46:02.48 | 4:41.11 | 207198 | 228283
16 | 50:43.59 | 2:40.07 | 228284 | 240290
17 | 53:23.66 | 3:46.54 | 240291 | 257294
Характеристики диапазона извлечения и сообщения об ошибках
Выбранный диапазон
Имя файла D:DesktopдискиПроисшествие2015 - ДостоевскийПроисшествие - Достоевский.wav
Пиковый уровень 99.9 %
Скорость извлечения 6.4 X
Качество диапазона 100.0 %
CRC теста BD08EF3C
CRC копии BD08EF3C
Копирование... OK
Ошибок не произошло
AccurateRip: сводка
Трек 1 отсутствует в базе данных
Трек 2 отсутствует в базе данных
Трек 3 отсутствует в базе данных
Трек 4 отсутствует в базе данных
Трек 5 отсутствует в базе данных
Трек 6 отсутствует в базе данных
Трек 7 отсутствует в базе данных
Трек 8 отсутствует в базе данных
Трек 9 отсутствует в базе данных
Трек 10 отсутствует в базе данных
Трек 11 отсутствует в базе данных
Трек 12 отсутствует в базе данных
Трек 13 отсутствует в базе данных
Трек 14 отсутствует в базе данных
Трек 15 отсутствует в базе данных
Трек 16 отсутствует в базе данных
Трек 17 отсутствует в базе данных
Ни одного трека нет в базе AccurateRip
Конец отчёта
==== Контрольная сумма отчёта BF2FB1F134E316014BAF98F859847DDF8B26008187C63D5701D17F710038E0A2 ====
хххххххххххххххххххххххххххххххххххххххххххххххххххххххххххххххххххххххххххххххххххххххххххххххх
-----------------------
DON'T MODIFY THIS FILE
-----------------------
PERFORMER: auCDtect Task Manager, ver. 1.5.1RC4 build 1.5.1.5
Copyright (c) 2008-2010 y-soft. All rights reserved
http://y-soft.org
ANALYZER: auCDtect: CD records authenticity detector, version 0.8.2
Copyright (c) 2004 Oleg Berngardt. All rights reserved.
Copyright (c) 2004 Alexander Djourik. All rights reserved.
FILE: Происшествие - Достоевский.flac
Size: 401459574 Hash: 835BAF78774236361C2D68080D8B615D Accuracy: -m0
Conclusion: CDDA 99%
Signature: B933F157BB0486AA1C28148D3DC1DDB286D1F261



   Похожие торренты   Торрент   Размер 
В этой теме нет новых непрочитанных сообщений. Виктимология - Происшествие (2015) MP3

38 | 3

136.65 МБ

В этой теме нет новых непрочитанных сообщений. Достоевский [01-08 из 08] (2010) DVDRip-AVC

58 | 24

6.1 ГБ

В этой теме нет новых непрочитанных сообщений. Достоевский Фёдор Михайлович - Братья Карамазовы (2007) MP3

74 | 12

1.42 ГБ

В этой теме нет новых непрочитанных сообщений. Фёдор Михайлович Достоевский. Неустрашимый проповедник имени Христа (2011) BD DVB от AND03AND

4 | 0

494.61 МБ

В этой теме нет новых непрочитанных сообщений. Происшествие - Танцевать! (2013) MP3

2 | 0

118.45 МБ

В этой теме нет новых непрочитанных сообщений. Чрезвычайное происшествие [23.08] (2017) SATRip

0 | 0

380.09 МБ

В этой теме нет новых непрочитанных сообщений. Происшествие / Авария / Accident (2017) BDRip | L1

148 | 9

1.15 ГБ




Вы не можете начинать темы
Вы не можете отвечать на сообщения
Вы не можете редактировать свои сообщения
Вы не можете удалять свои сообщения
Вы не можете добавлять вложения

Перейти:  
 Вход
ppkBB3cker v.2 © 2008-2014 @ PPK
[ Time : 0.034s | 18 Queries | GZIP : Off ]

cron