img image001 image001 image001 image001 image001 image001 image001 image001 image001 image001 image001 image001 image001 image001 image001 image001

Planets Sun Sun Sun
Статистика раздачи
Автор: Снежана | Размер: 443.24 МБ | Добавлен: 09 фев 2018
Раздают: 2    Качают: 0
Скачать торрент
Скачать торрент
Описание торрента

СообщениеДобавлено: 09 фев 2018 

Название: Out Of The Blue
Исполнитель: Systems In Blue
Год: 2008
Издание: Spectre Media - 1075552
Жанр: Disco, Euro-Disco
Страна: Germany
Продолжительность: 00:55:53
Формат/Кодек: FLAC
Битрейт аудио: Lossless
Тип рипа: image + .cue
Рип: шарик-off
01. Dr.No (3:32)
02. Heaven & Hell (3:37)
03. Back To Life (3:28)
04. Gambler (3:57)
05. Key To Freedom (3:49)
06. Les Yeux De L'Amour (3:24)
07. Shadows Of Love (3:49)
08. Shangri-La (3:19)
09. Take My Love Again (3:57)
10. Summer 97 (3:20)
11. Two Faces (3:40)
12. Out Of The Blue (3:38)
Bonus Tracks
13. Voodoo Queen (single version) (4:24)
14. Voodoo Queen (karaoke version) (4:26)
15. Poin Of No Return (3:34)
Exact Audio Copy V1.3 from 2. September 2016
EAC extraction logfile from 7. February 2018, 20:41
Systems In Blue / Out Of The Blue
Used drive : ASUS DRW-24D5MT Adapter: 1 ID: 0
Read mode : Secure
Utilize accurate stream : Yes
Defeat audio cache : Yes
Make use of C2 pointers : No
Read offset correction : 6
Overread into Lead-In and Lead-Out : No
Fill up missing offset samples with silence : Yes
Delete leading and trailing silent blocks : No
Null samples used in CRC calculations : Yes
Used interface : Native Win32 interface for Win NT & 2000
Used output format : User Defined Encoder
Selected bitrate : 896 kBit/s
Quality : High
Add ID3 tag : No
Command line compressor : C:Program Files (x86)Exact Audio CopyFlacflac.exe
Additional command line options : -8 -V -T "TITLE=%title%" -T "ARTIST=%artist%" -T "ALBUMARTIST=%albumartist%" -T "ALBUM=%albumtitle%" -T "DATE=%year%" -T "TRACKNUMBER=%tracknr%" -T "TRACKTOTAL=%numtracks%" -T "GENRE=%genre%" -T "COMMENT=%comment%" -T "PERFORMER=%albuminterpret%" -T "COMPOSER=%composer%" %source% -o %dest%
TOC of the extracted CD
Track | Start | Length | Start sector | End sector
---------------------------------------------------------
1 | 0:00.00 | 3:31.39 | 0 | 15863
2 | 3:31.39 | 3:37.16 | 15864 | 32154
3 | 7:08.55 | 3:28.05 | 32155 | 47759
4 | 10:36.60 | 3:56.44 | 47760 | 65503
5 | 14:33.29 | 3:49.11 | 65504 | 82689
6 | 18:22.40 | 3:23.52 | 82690 | 97966
7 | 21:46.17 | 3:48.62 | 97967 | 115128
8 | 25:35.04 | 3:18.39 | 115129 | 130017
9 | 28:53.43 | 3:57.25 | 130018 | 147817
10 | 32:50.68 | 3:19.72 | 147818 | 162814
11 | 36:10.65 | 3:39.67 | 162815 | 179306
12 | 39:50.57 | 3:37.42 | 179307 | 195623
13 | 43:28.24 | 4:24.24 | 195624 | 215447
14 | 47:52.48 | 4:26.00 | 215448 | 235397
15 | 52:18.48 | 3:33.66 | 235398 | 251438
Range status and errors
Selected range
Filename C:MusicSystems In Blue - Out Of The Blue.wav
Peak level 100.0 %
Extraction speed 7.4 X
Range quality 99.9 %
Test CRC 8808E3DE
Copy CRC 8808E3DE
Copy OK
No errors occurred
AccurateRip summary
Track 1 not present in database
Track 2 not present in database
Track 3 not present in database
Track 4 not present in database
Track 5 not present in database
Track 6 not present in database
Track 7 not present in database
Track 8 not present in database
Track 9 not present in database
Track 10 not present in database
Track 11 not present in database
Track 12 not present in database
Track 13 not present in database
Track 14 not present in database
Track 15 not present in database
None of the tracks are present in the AccurateRip database
End of status report
---- CUETools DB Plugin V2.1.6
[CTDB TOCID: riJkVQL9wkNvIzujL_.y91SBB5E-] disk not present in database
Submit result: riJkVQL9wkNvIzujL_.y91SBB5E- has been uploaded
==== Log checksum 86CFB80B5C86811C8E3EE77A9154F810613E9C650CFE182543C8615F31FF202A ====




   Похожие торренты   Торрент   Размер 
В этой теме нет новых непрочитанных сообщений. Systems In Blue - Back In Blue (2015) MP3

125 | 11

138.46 МБ

В этой теме нет новых непрочитанных сообщений. Systems In Blue - Melange Bleu (2017) MP3

9 | 0

177.78 МБ

В этой теме нет новых непрочитанных сообщений. Systems In Blue - Melange Bleu (2017) MP3

44 | 4

106.15 МБ

В этой теме нет новых непрочитанных сообщений. Blue Stahli - Antisleep Vol. 1 (2008) FLAC от New-Team

22 | 5

333.71 МБ

В этой теме нет новых непрочитанных сообщений. Blue Stahli - Blue Stahli (2011) FLAC от New-Team

10 | 2

358.77 МБ

В этой теме нет новых непрочитанных сообщений. Barbara Blue - Jus' Blue (2012) MP3 от BestSound ExKinoRay

4 | 1

172.29 МБ

В этой теме нет новых непрочитанных сообщений. iamamiwhoami - Blue (2014) FLAC

20 | 4

343.96 МБ




Вы не можете начинать темы
Вы не можете отвечать на сообщения
Вы не можете редактировать свои сообщения
Вы не можете удалять свои сообщения
Вы не можете добавлять вложения

Перейти:  
 Вход
ppkBB3cker v.2 © 2008-2014 @ PPK
[ Time : 0.025s | 16 Queries | GZIP : Off ]

cron