img image001 image001 image001 image001 image001 image001 image001 image001 image001 image001 image001 image001 image001 image001 image001

Planets Sun Sun Sun
Статистика раздачи
Автор: PriZraK | Размер: 539.77 МБ | Добавлен: 28 мар 2022
Раздают: 0    Качают: 0
Скачать торрент
Скачать торрент
Описание торрента

СообщениеДобавлено: 28 мар 2022 

Название: Tigress [Women Who Rock The World, Japanese Edition]
Исполнитель: Jim Peterik And World Stage
Год: 2021
Жанр: Melodic-Hard-Rock, AOR
Лейбл:Avalon – MICP-11656
Страна: International
Страна-производитель диска (релиза): Japan
Наличие сканов в содержимом раздачи: да

Продолжительность: 01:16:42
Формат/Кодек: FLAC
Битрейт аудио: Lossless (image+.cue)

Официальный сайт Jim Peterik And World Stage
facebook
discogs

01. Tigress - Kate French (4:25)
02. Prom Night In Pontiac - Chloe Lowery (3:30)
03. A Cappella (4:52)
04. Living For The Moment (4:14)
05. Against The Grain (4:45)
06. Strong Against The Wind (5:37)
07. Full Moon Crazy (3:18)
08. Lazarus Heart (4:09)
09. Taller (4:48)
10. The Best In Us (4:38)
11. Dear Life (4:50)
12. Walk Like Royalty (4:40)
13. Music In The Aire (4:20)
14. Sin To Believe A Lie (5:48)
15. Stronger At The Broken Places (3:24)
16. Brave Is Beautiful (4:50)
Japan Bonus Track:
17. The Best In Us (acoustic version) (4:33)
Код:
X Lossless Decoder version 20211018 (154.0)

XLD extraction logfile from 2021-12-10 12:44:08 +1000

Jim Peterik And World Stage / Tigress: Women Who Rock The World

Used drive : HL-DT-ST DVDRW  GX50N (revision RR06)
Media type : Pressed CD

Ripper mode             : XLD Secure Ripper
Disable audio cache     : OK for the drive with a cache less than 1375KiB
Make use of C2 pointers : NO
Read offset correction  : 6
Max retry count         : 20
Gap status              : Analyzed, Appended

TOC of the extracted CD
     Track |   Start  |  Length  | Start sector | End sector
    ---------------------------------------------------------
        1  | 00:00:00 | 04:24:63 |         0    |    19862
        2  | 04:24:63 | 03:29:50 |     19863    |    35587
        3  | 07:54:38 | 04:51:70 |     35588    |    57482
        4  | 12:46:33 | 04:14:30 |     57483    |    76562
        5  | 17:00:63 | 04:45:26 |     76563    |    97963
        6  | 21:46:14 | 05:37:26 |     97964    |   123264
        7  | 27:23:40 | 03:17:48 |    123265    |   138087
        8  | 30:41:13 | 04:08:60 |    138088    |   156747
        9  | 34:49:73 | 04:47:64 |    156748    |   178336
       10  | 39:37:62 | 04:38:16 |    178337    |   199202
       11  | 44:16:03 | 04:50:23 |    199203    |   220975
       12  | 49:06:26 | 04:39:70 |    220976    |   241970
       13  | 53:46:21 | 04:20:35 |    241971    |   261505
       14  | 58:06:56 | 05:48:25 |    261506    |   287630
       15  | 63:55:06 | 03:23:59 |    287631    |   302914
       16  | 67:18:65 | 04:50:21 |    302915    |   324685
       17  | 72:09:11 | 04:33:17 |    324686    |   345177

AccurateRip Summary
    Disc not found in AccurateRip DB.

All Tracks
    Filename : /Volumes/Seagate Backup Plus Drive/Music/1 My COLLECTION/Jim Peterik And World Stage/2021 - Tigress - Women Who Rock The World/Tigress: Women Who Rock The World.flac
    CRC32 hash (test run)    : C85DBF65
    CRC32 hash               : C85DBF65
    CRC32 hash (skip zero)   : EAD219A2
    Statistics
        Read error                           : 0
        Jitter error (maybe fixed)           : 0
        Retry sector count                   : 0
        Damaged sector count                 : 0

Track 01
    Pre-gap length : 00:02:00

    CRC32 hash (test run)    : 5B58F66F
    CRC32 hash               : 5B58F66F
    CRC32 hash (skip zero)   : A7437F3F
    AccurateRip v1 signature : ACA5086F
    AccurateRip v2 signature : F3EF3855
        ->Track not present in AccurateRip database.
    Statistics
        Read error                           : 0
        Jitter error (maybe fixed)           : 0
        Retry sector count                   : 0
        Damaged sector count                 : 0

Track 02

    CRC32 hash (test run)    : 65F69E83
    CRC32 hash               : 65F69E83
    CRC32 hash (skip zero)   : 8D693766
    AccurateRip v1 signature : 14DD1658
    AccurateRip v2 signature : 120C1BB7
        ->Track not present in AccurateRip database.
    Statistics
        Read error                           : 0
        Jitter error (maybe fixed)           : 0
        Retry sector count                   : 0
        Damaged sector count                 : 0

Track 03

    CRC32 hash (test run)    : 9694AC79
    CRC32 hash               : 9694AC79
    CRC32 hash (skip zero)   : 1FCA1F61
    AccurateRip v1 signature : C646F526
    AccurateRip v2 signature : A5510E2D
        ->Track not present in AccurateRip database.
    Statistics
        Read error                           : 0
        Jitter error (maybe fixed)           : 0
        Retry sector count                   : 0
        Damaged sector count                 : 0

Track 04

    CRC32 hash (test run)    : 6C32EB38
    CRC32 hash               : 6C32EB38
    CRC32 hash (skip zero)   : 3410D444
    AccurateRip v1 signature : 79914BCD
    AccurateRip v2 signature : 593716EF
        ->Track not present in AccurateRip database.
    Statistics
        Read error                           : 0
        Jitter error (maybe fixed)           : 0
        Retry sector count                   : 0
        Damaged sector count                 : 0

Track 05

    CRC32 hash (test run)    : 986F94A4
    CRC32 hash               : 986F94A4
    CRC32 hash (skip zero)   : 32799AB8
    AccurateRip v1 signature : B360D512
    AccurateRip v2 signature : 31E5010D
        ->Track not present in AccurateRip database.
    Statistics
        Read error                           : 0
        Jitter error (maybe fixed)           : 0
        Retry sector count                   : 0
        Damaged sector count                 : 0

Track 06

    CRC32 hash (test run)    : 824B4432
    CRC32 hash               : 824B4432
    CRC32 hash (skip zero)   : 351D2531
    AccurateRip v1 signature : 159FE2C9
    AccurateRip v2 signature : DDF382B2
        ->Track not present in AccurateRip database.
    Statistics
        Read error                           : 0
        Jitter error (maybe fixed)           : 0
        Retry sector count                   : 0
        Damaged sector count                 : 0

Track 07

    CRC32 hash (test run)    : C234457B
    CRC32 hash               : C234457B
    CRC32 hash (skip zero)   : 32DF86D8
    AccurateRip v1 signature : 460AB80D
    AccurateRip v2 signature : 8405318E
        ->Track not present in AccurateRip database.
    Statistics
        Read error                           : 0
        Jitter error (maybe fixed)           : 0
        Retry sector count                   : 0
        Damaged sector count                 : 0

Track 08

    CRC32 hash (test run)    : 5A8E4347
    CRC32 hash               : 5A8E4347
    CRC32 hash (skip zero)   : 2D9F6776
    AccurateRip v1 signature : 58DA6787
    AccurateRip v2 signature : E3DF85A5
        ->Track not present in AccurateRip database.
    Statistics
        Read error                           : 0
        Jitter error (maybe fixed)           : 0
        Retry sector count                   : 0
        Damaged sector count                 : 0

Track 09

    CRC32 hash (test run)    : 707B165D
    CRC32 hash               : 707B165D
    CRC32 hash (skip zero)   : 64386139
    AccurateRip v1 signature : 51142995
    AccurateRip v2 signature : EA07B505
        ->Track not present in AccurateRip database.
    Statistics
        Read error                           : 0
        Jitter error (maybe fixed)           : 0
        Retry sector count                   : 0
        Damaged sector count                 : 0

Track 10

    CRC32 hash (test run)    : 59DA2A66
    CRC32 hash               : 59DA2A66
    CRC32 hash (skip zero)   : 275DAB6C
    AccurateRip v1 signature : 5D3429E8
    AccurateRip v2 signature : A3B179F2
        ->Track not present in AccurateRip database.
    Statistics
        Read error                           : 0
        Jitter error (maybe fixed)           : 0
        Retry sector count                   : 0
        Damaged sector count                 : 0

Track 11

    CRC32 hash (test run)    : 7C2BEDBA
    CRC32 hash               : 7C2BEDBA
    CRC32 hash (skip zero)   : 884BBF2E
    AccurateRip v1 signature : EEF4081C
    AccurateRip v2 signature : 10B13665
        ->Track not present in AccurateRip database.
    Statistics
        Read error                           : 0
        Jitter error (maybe fixed)           : 0
        Retry sector count                   : 0
        Damaged sector count                 : 0

Track 12

    CRC32 hash (test run)    : C3E196A7
    CRC32 hash               : C3E196A7
    CRC32 hash (skip zero)   : 93DD4123
    AccurateRip v1 signature : 23EE5459
    AccurateRip v2 signature : 6C7B5469
        ->Track not present in AccurateRip database.
    Statistics
        Read error                           : 0
        Jitter error (maybe fixed)           : 0
        Retry sector count                   : 0
        Damaged sector count                 : 0

Track 13

    CRC32 hash (test run)    : 0EB0D194
    CRC32 hash               : 0EB0D194
    CRC32 hash (skip zero)   : 59C23605
    AccurateRip v1 signature : BDC72D6A
    AccurateRip v2 signature : E9AB2403
        ->Track not present in AccurateRip database.
    Statistics
        Read error                           : 0
        Jitter error (maybe fixed)           : 0
        Retry sector count                   : 0
        Damaged sector count                 : 0

Track 14

    CRC32 hash (test run)    : EAD47967
    CRC32 hash               : EAD47967
    CRC32 hash (skip zero)   : E437E675
    AccurateRip v1 signature : 6C99333D
    AccurateRip v2 signature : 03F6FA6B
        ->Track not present in AccurateRip database.
    Statistics
        Read error                           : 0
        Jitter error (maybe fixed)           : 0
        Retry sector count                   : 0
        Damaged sector count                 : 0

Track 15

    CRC32 hash (test run)    : A19D5152
    CRC32 hash               : A19D5152
    CRC32 hash (skip zero)   : 58B66CC3
    AccurateRip v1 signature : E643037A
    AccurateRip v2 signature : CE2CB9EB
        ->Track not present in AccurateRip database.
    Statistics
        Read error                           : 0
        Jitter error (maybe fixed)           : 0
        Retry sector count                   : 0
        Damaged sector count                 : 0

Track 16

    CRC32 hash (test run)    : 5A128E25
    CRC32 hash               : 5A128E25
    CRC32 hash (skip zero)   : 36B23307
    AccurateRip v1 signature : 287EFDC4
    AccurateRip v2 signature : 165E63F3
        ->Track not present in AccurateRip database.
    Statistics
        Read error                           : 0
        Jitter error (maybe fixed)           : 0
        Retry sector count                   : 0
        Damaged sector count                 : 0

Track 17

    CRC32 hash (test run)    : 1DC480CF
    CRC32 hash               : 1DC480CF
    CRC32 hash (skip zero)   : 8FFCC27C
    AccurateRip v1 signature : 8DC9597F
    AccurateRip v2 signature : 9A339F36
        ->Track not present in AccurateRip database.
    Statistics
        Read error                           : 0
        Jitter error (maybe fixed)           : 0
        Retry sector count                   : 0
        Damaged sector count                 : 0

No errors occurred

End of status report

-----BEGIN XLD SIGNATURE-----
fZ2qdD_DUjBvsIMRxnKk_9WKgCCOm2N4YXT.uJgA_qLH70hqU5C85ro04qK.u3hsiUn_FlZ9g9nUVHhq8HDVfxMoCX6Pi6fJ0GtGhWy
-----END XLD SIGNATURE-----



   Похожие торренты   Торрент   Размер 
В этой теме нет новых непрочитанных сообщений. Out Of This World - Out Of This World [24-bit Hi-Res] (2021/2022) FLAC

0 | 0

562.97 МБ

В этой теме нет новых непрочитанных сообщений. Kuni - Rock [Japanese Edition] (2010) FLAC

1 | 1

312.49 МБ

В этой теме нет новых непрочитанных сообщений. Eric Clapton - The Lady In The Balcony: Lockdown Sessions [Japanese edition] (2021) FLAC

0 | 0

482.64 МБ

В этой теме нет новых непрочитанных сообщений. Loft - New World (2021) FLAC

0 | 0

522.34 МБ

В этой теме нет новых непрочитанных сообщений. The Jaxx - New World (2021) FLAC

0 | 0

380.19 МБ

В этой теме нет новых непрочитанных сообщений. TNT - Welcome to Another World (2021) FLAC

0 | 0

339.88 МБ

В этой теме нет новых непрочитанных сообщений. Markus Schulz - Watch the World [Deluxe Edition] (2017) FLAC

11 | 0

1.7 ГБ




Вы не можете начинать темы
Вы не можете отвечать на сообщения
Вы не можете редактировать свои сообщения
Вы не можете удалять свои сообщения
Вы не можете добавлять вложения

Перейти:  
Контактная информация: rstracker[пёсик]yandex.ru
 Вход
ppkBB3cker v.2 © 2008-2014 @ PPK
[ Time : 0.019s | 19 Queries | GZIP : Off ]

cron