img image001 image001 image001 image001 image001 image001 image001 image001 image001 image001 image001 image001 image001 image001 image001 image001

Planets Sun Sun Sun
Статистика раздачи
Автор: Снежана | Размер: 1.03 ГБ | Добавлен: 28 июл 2013
Раздают: 21    Качают: 2
Скачать торрент
Скачать торрент
Описание торрента

СообщениеДобавлено: 28 июл 2013 

СD-1



Исполнитель: Владимир Кузьмин
Альбом: Лучшие песни [2CD]
Жанр: Pop / Rock
Год выпуска: 2007
Формат: APE (image + .cue)
Битрейт: lossless

[*]ТРЕКЛИСТ:
01. Семь морей [0:04:47.50]
02. Белая Луна [0:05:08.07]
03. Святой ручей [0:04:53.39]
04. Еще вчера [0:03:35.52]
05. Я возвращался домой [0:04:05.51]
06. Ливень [0:06:30.65]
07. Моя любовь [0:03:25.00]
08. Позвони мне среди ночи [0:04:52.61]
09. Пять минут от дома твоего [0:05:23.07]
10. Если бы ты знала [0:05:07.74]
11. Я не Казанова [0:03:44.59]
12. Нет, я не верю [0:03:42.37]
13. Небеса [0:04:36.32]
14. Желтая дорога [0:04:28.36]
15. Зачем уходишь ты? [0:04:45.57]
16. Мама, я попал в беду [0:07:34.10]

СD-2



Исполнитель: Владимир Кузьмин
Альбом: Лучшие песни [2CD]
Жанр: Pop / Rock
Год выпуска: 2007
Формат: APE (image + .cue)
Битрейт: lossless

ТРЕКЛИСТ:

01. Огонек [0:04:25.46]
02. Пороги [0:03:56.05]
03. Я не забуду тебя (Сибирские морозы) [0:06:04.51]
04. Семнадцать лет [0:02:43.37]
05. Симона [0:04:04.28]
06. Пристань твоей надежды [0:04:41.02]
07. Мячик [0:03:44.73]
08. Капюшон [0:04:14.11]
09. Когда меня ты позовешь [0:05:28.45]
10. Ясная звезда [0:04:59.64]
11. Небесное притяжение [0:06:04.59]
12. Слезы в огне [0:04:51.04]
13. Белые дикие кони [0:04:33.30]
14. Ромео и Джульетта [0:04:41.13]
15. Мечты [0:03:55.22]
16. Баллада о королеве [0:04:25.56]
17. Сказка в моей жизни [0:04:47.51]

Exact Audio Copy V0.99 prebeta 3 from 28. July 2007

Отчёт EAC об извлечении, выполненном 12. сентября 2007, 13:03

Кузьмин Владимир / Лучшие песни. Часть 1

Дисковод: _NEC DVD_RW ND-3520AW Adapter: 1 ID: 2

Режим чтения : Достоверность
Использование точного потока : Да
Отключение кэша аудио : Да
Использование указателей C2 : Нет

Коррекция смещения при чтении : 48
Способность читать области Lead-in и Lead-out : Нет
Заполнение пропущенных сэмплов тишиной : Да
Удаление блоков с тишиной в начале и конце : Нет
При вычислениях CRC использовались нулевые сэмплы : Да
Интерфейс : Встроенный Win32-интерфейс для Win NT/2000

Выходной формат : Внутренние WAV-операции
Формат сэмплов : 44.100 Гц; 16 бит; стерео
TOC извлечённого CD

Трек | Старт | Длительность | Начальный сектор | Конечный сектор
---------------------------------------------------------------------
1 | 0:00.00 | 4:47.50 | 0 | 21574
2 | 4:47.50 | 5:08.07 | 21575 | 44681
3 | 9:55.57 | 4:53.39 | 44682 | 66695
4 | 14:49.21 | 3:35.52 | 66696 | 82872
5 | 18:24.73 | 4:05.51 | 82873 | 101298
6 | 22:30.49 | 6:30.65 | 101299 | 130613
7 | 29:01.39 | 3:25.00 | 130614 | 145988
8 | 32:26.39 | 4:52.61 | 145989 | 167949
9 | 37:19.25 | 5:23.07 | 167950 | 192181
10 | 42:42.32 | 5:07.74 | 192182 | 215280
11 | 47:50.31 | 3:44.59 | 215281 | 232139
12 | 51:35.15 | 3:42.37 | 232140 | 248826
13 | 55:17.52 | 4:36.32 | 248827 | 269558
14 | 59:54.09 | 4:28.36 | 269559 | 289694
15 | 64:22.45 | 4:45.57 | 289695 | 311126
16 | 69:08.27 | 7:34.10 | 311127 | 345186
Характеристики диапазона извлечения и сообщения об ошибках

Выбранный диапазон

Имя файла E:Music LosslessКузьмин - Лучшие песни (2007)CD 1Кузьмин Владимир - Лучшие песни (Часть 1).wav

Пиковый уровень 99.9 %
Качество диапазона 100.0 %
CRC копии 86061C7A
Копирование... OK

Ошибок не произошло

Конец отчёта
Exact Audio Copy V0.99 prebeta 3 from 28. July 2007

Отчёт EAC об извлечении, выполненном 12. сентября 2007, 17:29

Кузьмин Владимир / Лучшие песни. Часть 2

Дисковод: _NEC DVD_RW ND-3520AW Adapter: 1 ID: 2

Режим чтения : Достоверность
Использование точного потока : Да
Отключение кэша аудио : Да
Использование указателей C2 : Нет

Коррекция смещения при чтении : 48
Способность читать области Lead-in и Lead-out : Нет
Заполнение пропущенных сэмплов тишиной : Да
Удаление блоков с тишиной в начале и конце : Нет
При вычислениях CRC использовались нулевые сэмплы : Да
Интерфейс : Встроенный Win32-интерфейс для Win NT/2000

Выходной формат : Внутренние WAV-операции
Формат сэмплов : 44.100 Гц; 16 бит; стерео
TOC извлечённого CD

Трек | Старт | Длительность | Начальный сектор | Конечный сектор
---------------------------------------------------------------------
1 | 0:00.00 | 4:25.46 | 0 | 19920
2 | 4:25.46 | 3:56.05 | 19921 | 37625
3 | 8:21.51 | 6:04.51 | 37626 | 64976
4 | 14:26.27 | 2:43.37 | 64977 | 77238
5 | 17:09.64 | 4:04.28 | 77239 | 95566
6 | 21:14.17 | 4:41.02 | 95567 | 116643
7 | 25:55.19 | 3:44.73 | 116644 | 133516
8 | 29:40.17 | 4:14.11 | 133517 | 152577
9 | 33:54.28 | 5:28.45 | 152578 | 177222
10 | 39:22.73 | 4:59.64 | 177223 | 199711
11 | 44:22.62 | 6:04.59 | 199712 | 227070
12 | 50:27.46 | 4:51.04 | 227071 | 248899
13 | 55:18.50 | 4:33.30 | 248900 | 269404
14 | 59:52.05 | 4:41.13 | 269405 | 290492
15 | 64:33.18 | 3:55.22 | 290493 | 308139
16 | 68:28.40 | 4:25.56 | 308140 | 328070
17 | 72:54.21 | 4:47.51 | 328071 | 349646
Характеристики диапазона извлечения и сообщения об ошибках

Выбранный диапазон

Имя файла E:1Кузьмин Владимир - Лучшие песни. Часть 2.wav

Пиковый уровень 99.9 %
Качество диапазона 100.0 %
CRC копии 159CFC72
Копирование... OK

Ошибок не произошло

Конец отчёта



   Похожие торренты   Торрент   Размер 
В этой теме нет новых непрочитанных сообщений. Владимир Кузьмин - Лучшие песни (2017) WEBRip от Лумина

42 | 0

1.37 ГБ

В этой теме нет новых непрочитанных сообщений. Владимир Кузьмин - Greatest Hits (2007) MP3

50 | 0

340.8 МБ

В этой теме нет новых непрочитанных сообщений. Владимир Кузьмин - Greatest Hits (2007) MP3

7 | 0

340.8 МБ

В этой теме нет новых непрочитанных сообщений. Владимир Кузьмин - Рокер (2001) MP3

1 | 0

124.81 МБ

В этой теме нет новых непрочитанных сообщений. Владимир Кузьмин - 100 лучших композиций (2014) MP3

626 | 59

1.04 ГБ

В этой теме нет новых непрочитанных сообщений. Владимир Кузьмин - Лучшее (2013) FLAC

226 | 20

1.09 ГБ

В этой теме нет новых непрочитанных сообщений. Владимир Кузьмин и гр. Динамик - Дискография (1982-2014) MP3

35 | 8

12.09 ГБ




Вы не можете начинать темы
Вы не можете отвечать на сообщения
Вы не можете редактировать свои сообщения
Вы не можете удалять свои сообщения
Вы не можете добавлять вложения

Перейти:  
 Вход
ppkBB3cker v.2 © 2008-2014 @ PPK
[ Time : 0.029s | 17 Queries | GZIP : Off ]

cron