img image001 image001 image001 image001 image001 image001 image001 image001 image001 image001 image001 image001 image001 image001 image001

Planets Sun Sun Sun
Статистика раздачи
Автор: Снежана | Размер: 31.01 МБ | Добавлен: 28 июл 2013
Раздают: 6    Качают: 2
Скачать торрент
Скачать торрент
Описание торрента

СообщениеДобавлено: 28 июл 2013 



Год выпуска: 2008
Страна: Россия
Жанр: Шансон
Продолжительность: 00:03:32

Описание: Клип Стаса Михайлова ТЫ

Качество: SATRip
Формат: AVI
Видео кодек: DivX
Аудио кодек: MP3
Видео: DivX, 704x540, 1 022 Kbps (0.108 bits/pixel)
Аудио: MP3, 192 Kbps, 48.0 KHz, 2 channels

Format : AVI
Format/Info : Audio Video Interleave
File size : 31.0 MiB
Duration : 3mn 32s
Overall bit rate : 1 224 Kbps
Writing library : VirtualDub-MPEG2 build 24586/release

Video
Format : MPEG-4 Visual
Format settings, BVOP : Yes
Format settings, QPel : No
Format settings, GMC : No warppoints
Format settings, Matrix : Default (H.263)
Muxing mode : Packed bitstream
Codec ID : DX50
Codec ID/Hint : DivX 5
Duration : 3mn 32s
Bit rate : 1 022 Kbps
Width : 704 pixels
Height : 540 pixels
Display aspect ratio : 4/3
Frame rate : 25.000 fps
Resolution : 24 bits
Colorimetry : 4:2:0
Scan type : Progressive
Bits/(Pixel*Frame) : 0.108
Stream size : 25.9 MiB (84%)
Writing library : DivX 6.8.5

Audio
Format : MPEG Audio
Format version : Version 1
Format profile : Layer 3
Codec ID : 55
Codec ID/Hint : MP3
Duration : 3mn 32s
Bit rate mode : Constant
Bit rate : 192 Kbps
Channel(s) : 2 channels
Sampling rate : 48.0 KHz
Resolution : 16 bits
Stream size : 4.86 MiB (16%)
Alignment : Split accross interleaves
Interleave, duration : 40 ms (1.00 video frame)
Interleave, preload duration : 500 ms





   Похожие торренты   Торрент   Размер 
В этой теме нет новых непрочитанных сообщений. Стас Михайлов - Стас Михайлов. Лучшее (1997-2010) MP3

395 | 261

595.89 МБ

В этой теме нет новых непрочитанных сообщений. Стас Михайлов - Небеса (2008) DVDRip

56 | 4

1.37 ГБ

В этой теме нет новых непрочитанных сообщений. Стас Михайлов - Позывные на любовь (2008) MP3

1 | 6

124.03 МБ

В этой теме нет новых непрочитанных сообщений. Стас Михайлов - Позывные на любовь (2008) FLAC

0 | 2

365.19 МБ

В этой теме нет новых непрочитанных сообщений. Стас Михайлов - Концерт в Кремле (2010) SATRip

64 | 6

1.88 ГБ

В этой теме нет новых непрочитанных сообщений. Чистосердечное признание. Стас Михайлов [эфир от 23.09] (2012) SATRip

0 | 2

429.98 МБ

В этой теме нет новых непрочитанных сообщений. Стас Михайлов - Я открою свое сердце. Новый концерт Стаса Михайлова (2012) SATRip от КинозалSAT

190 | 10

1.17 ГБ




Вы не можете начинать темы
Вы не можете отвечать на сообщения
Вы не можете редактировать свои сообщения
Вы не можете удалять свои сообщения
Вы не можете добавлять вложения

Перейти:  
Для Мосгорсуда, Роскомнадзора и рекламодателей: mosgorsud-torrent[собачка]yandex.ru
 Вход
ppkBB3cker v.2 © 2008-2014 @ PPK
[ Time : 0.044s | 18 Queries | GZIP : Off ]

cron