img image001 image001 image001 image001 image001 image001 image001 image001 image001 image001 image001 image001 image001 image001 image001

Planets Sun Sun Sun
Статистика раздачи
Автор: Снежана | Размер: 1.34 ГБ | Добавлен: 28 июл 2013
Раздают: 2    Качают: 9
Скачать торрент
Скачать торрент
Описание торрента

СообщениеДобавлено: 28 июл 2013 



Название: Therion - Live Gothic 2008 ( live at Warsaw Poland )
Исполнитель: Therion
Год: 2008
Жанр: Gothic Metal, Symphonic Metal
Страна: Швеция

Продолжительность: 2:03:32
Качество:DVDRip
Формат/Кодек: AVI
Битрейт видео: Xvid 640x368 1352Kbps 25.00fps;
Битрейт аудио: MPEG Audio Layer 3 48000Hz stereo 192kbps
Format : AVI
Format/Info : Audio Video Interleave
File size : 1.34 GiB
Duration : 2h 3mn
Overall bit rate : 1 548 Kbps

Video
ID : 0
Format : MPEG-4 Visual
Format profile : Advanced Simple@L5
Format settings, BVOP : No
Format settings, QPel : No
Format settings, GMC : No warppoints
Format settings, Matrix : Custom
Codec ID : XVID
Codec ID/Hint : XviD
Duration : 2h 3mn
Bit rate : 1 352 Kbps
Width : 640 pixels
Height : 368 pixels
Display aspect ratio : 16:9
Frame rate : 25.000 fps
Resolution : 8 bits
Colorimetry : 4:2:0
Scan type : Progressive
Bits/(Pixel*Frame) : 0.230
Stream size : 1.17 GiB (87%)
Title : 1.avi Видео #1
Writing library : XviD 1.2.0.dev47 (UTC 2006-11-01)

Audio
ID : 1
Format : MPEG Audio
Format version : Version 1
Format profile : Layer 3
Mode : Joint stereo
Format_Settings_ModeExtension : MS Stereo
Codec ID : 55
Codec ID/Hint : MP3
Duration : 2h 3mn
Bit rate mode : Constant
Bit rate : 192 Kbps
Channel(s) : 2 channels
Sampling rate : 48.0 KHz
Stream size : 170 MiB (12%)
Alignment : Aligned on interleaves
Interleave, duration : 5446 ms (136.16 video frames)
Title : 1.avi Аудио #1



Официальный сайт

1. Der Mitternachtslowe
2. Schwartzalbenheim
3. The Blood Of Kingu
4. The Falling Stone
5. An Arrow From The Sun
6. Deggial
7. Wine Of Aluqah
8. The Perennial Sophia
9. The Son Of The Sun
10. Son Of The Staves Of Time
11. Birth Of Venus Illegitima
12. Tuna 1613
13. Drum Solo
14. Muspelheim
15. Rise Of Sodom And Gomorrah
16. Ginnungagap
17. Grand Finale
18. Lemuria
19. The Wand Of Abaris
20. Nightside Of Eden
21. To Mega Therion
22. Thor (The Powerhead)


Дополнительная информация: Therion — шведская музыкальная группа, основанная в 1987 году гитаристом Кристофером Йонсоном. Therion считаются одними из основателей и ключевых исполнителей в стиле симфоник-метал: ее композиции записываются и исполняются с участием живых оркестров, приглашенных оперных вокалистов и хоров. Большинство песен группы касается различных мистических учений, мифологии народов мира. Слово Therion (θηρίον) происходит из греческого языка, и означает «зверь», «чудовище».

С первых альбомов и на протяжении всей истории основной тематикой текстов группы остается мифология народов мира, мистические и религиозные учения древности. Среди постоянных тем — верования древнего Египта, Скандинавии, Греции, библейская мифология, Атлантида, еретические учения, такие как хлысты. Концептуальный альбом 2001 года Secret of the Runes посвящен девяти мирам в скандинавской мифологии.

Автором значительной части текстов группы является Томас Карлсон, глава общества мистиков под названием «Орден Красного Дракона» (Order Dragon Rouge). Кристофер Йонсон также является членом этого Ордена.

Концертные шоу Therion представляют собой театрализованные представления, которые иллюстрируют содержание песен. На сцене воздвигаются декорации средневековых замков, клеток, факелов, вокалисты выступают в сценических костюмах, стилизованных под Средневековье.

Состав группы:
Christofer Johnsson - Guitars, Keyboards
Kristian Niemann - guitars, keyboards
Johann Niemann - bass, acoustic guitars
Petter Karlsson - drums
Session/Touring Vocalists:
Thomas Vikstrцm
Snowy Shaw
Katarina Lilja
Hannah Holgersson (studio only)
Lori Lewis (touring only)

Рецензия на www.darkside.ru














   Похожие торренты   Торрент   Размер 
В этой теме нет новых непрочитанных сообщений. Vital Remains - "Evil - Death - Live" [Live In Poland] (2007) DVD5

0 | 2

4.15 ГБ

В этой теме нет новых непрочитанных сообщений. Therion - Live In Mexico (2004) DVDRip от ExKinoRay

0 | 21

2.05 ГБ

В этой теме нет новых непрочитанных сообщений. Paramore Live - the Final Riot! [Live in Chicago] (2008) BDRip от HQ-ViDEO

2 | 3

1.35 ГБ

В этой теме нет новых непрочитанных сообщений. Tesla - Comin' Atcha Live! 2008 (2008) DVDRip от WIDDER

4 | 2

2.05 ГБ

В этой теме нет новых непрочитанных сообщений. Obituary - Frozen Alive [Live In Poland] (2006) DVD9

0 | 2

4.36 ГБ

В этой теме нет новых непрочитанных сообщений. ABBA - In Studio 2, Live In Poland (1976) SATRip от R.G. Golden-Ретро

7 | 4

1.15 ГБ

В этой теме нет новых непрочитанных сообщений. Qlimax 2008 live / 22nd of november Gelredome Arnhem (2008) BDRip от HQ-ViDEO

0 | 1

2.18 ГБ




Вы не можете начинать темы
Вы не можете отвечать на сообщения
Вы не можете редактировать свои сообщения
Вы не можете удалять свои сообщения
Вы не можете добавлять вложения

Перейти:  
Для Мосгорсуда, Роскомнадзора и рекламодателей: mosgorsud-torrent[собачка]yandex.ru
 Вход
ppkBB3cker v.2 © 2008-2014 @ PPK
[ Time : 0.036s | 17 Queries | GZIP : Off ]

cron